<?xml version="1.0" standalone="no"?>
<!DOCTYPE svg PUBLIC "-//W3C//DTD SVG 1.1//EN" "http://www.w3.org/Graphics/SVG/1.1/DTD/svg11.dtd" >
<svg xmlns="http://www.w3.org/2000/svg">
<metadata>
This is a custom SVG webfont generated by Font Squirrel.
Copyright   : Copyright c 2004 by Magenta 2008 by George Triantafyllakos Released under the SIL Open Font License OFL
Designer    : MagentaGeorge Triantafyllakos
Foundry     : MagentaGeorge Triantafyllakos
Foundry URL : httpwwwmagentagr
</metadata>
<defs>
<font id="BPreplayRegular" horiz-adv-x="1280" >
<font-face units-per-em="2048" ascent="1638" descent="-410" />
<missing-glyph horiz-adv-x="638" />
<glyph unicode=" "  horiz-adv-x="638" />
<glyph unicode="&#x09;" horiz-adv-x="638" />
<glyph unicode="&#xa0;" horiz-adv-x="638" />
<glyph unicode="!" horiz-adv-x="466" d="M0 102q0 43 29.5 73t72.5 30t73 -30t30 -73t-30 -72.5t-73 -29.5t-72.5 29.5t-29.5 72.5zM25 371v1114q0 88 75 88q74 0 74 -88v-1114q0 -76 -76 -76q-73 0 -73 76z" />
<glyph unicode="&#x22;" horiz-adv-x="694" d="M0 1186v301q0 88 76 88q74 0 74 -88v-301q0 -80 -76 -80q-74 0 -74 80zM285 1186v301q0 88 77.5 88t77.5 -88v-301q0 -80 -80 -80q-75 0 -75 80z" />
<glyph unicode="#" horiz-adv-x="1353" d="M0 526q0 35 27.5 52.5t60.5 17.5h164l51 332h-151q-78 0 -78 69q0 63 78 64h167l58 434q8 76 65 76q29 0 50.5 -20.5t21.5 -47.5v-8l-61 -434h286l62 434q10 78 65 78q29 0 48.5 -19.5t19.5 -48.5v-10l-57 -434h143q33 0 56.5 -16.5t23.5 -49.5q0 -68 -90 -67h-150 l-51 -332h147q74 0 74 -70q0 -33 -25.5 -51t-56.5 -18h-155l-56 -357q-14 -100 -88 -100q-49 0 -49 55q0 2 1 9.5t1 11.5l55 381h-288l-52 -357q-14 -100 -88 -100q-51 0 -51 55q0 2 1 10.5t1 10.5l56 381h-142q-94 -1 -94 69zM385 596h289l49 332h-287z" />
<glyph unicode="$" horiz-adv-x="1153" d="M0 1163q0 160 114.5 275.5t272.5 138.5v78q0 66 43 65.5t43 -61.5v-82q94 -2 213 -53t119 -129q0 -72 -70 -72q-23 0 -113 50t-149 54v-516q186 -61 306 -179t120 -288q0 -178 -127 -311t-299 -133q0 -49 2 -100q0 -55 -43 -56q-47 0 -49 62l4 94q-109 8 -227.5 51 t-118.5 109q0 37 20.5 60.5t53 23.5t126 -45t146.5 -49v612q-166 43 -276.5 146t-110.5 255zM168 1190q0 -90 64.5 -154.5t154.5 -91.5v483q-98 -18 -158.5 -84.5t-60.5 -152.5zM473 141q109 20 182.5 102.5t73.5 190.5q0 209 -256 295v-588z" />
<glyph unicode="%" horiz-adv-x="1691" d="M0 1204q0 160 93 263.5t249 103.5q154 0 247 -110.5t93 -268.5q0 -160 -92 -268.5t-248 -108.5q-154 0 -248 114.5t-94 274.5zM139 1196q0 -104 53.5 -184t149.5 -80q98 0 153.5 75.5t55.5 182.5q0 111 -57.5 187.5t-151.5 76.5q-96 0 -149.5 -77t-53.5 -181zM369 39 q0 18 6 33l557 1429q25 61 80 62q27 0 44 -19.5t17 -46.5t-12 -53l-572 -1444q-10 -31 -65 -31q-23 0 -39 19.5t-16 50.5zM758 385q0 160 94 265.5t252 105.5q152 0 243 -114t91 -271q0 -160 -89 -265.5t-245 -105.5q-158 0 -252 111.5t-94 273.5zM897 379 q0 -109 53.5 -186.5t153.5 -77.5q98 0 151.5 74.5t53.5 179t-55.5 187.5t-149.5 83q-96 0 -151.5 -78t-55.5 -182z" />
<glyph unicode="&#x26;" horiz-adv-x="1544" d="M0 426q0 287 360 518q-150 156 -149 309q0 147 94 232.5t219 85.5q121 0 206 -81t85 -233q0 -170 -217 -346l385 -438l123 205q45 80 102 80q31 0 50.5 -18.5t19.5 -47.5q0 -47 -31 -96l-166 -250l191 -209q18 -23 18 -49q0 -35 -23.5 -61.5t-54.5 -26.5q-35 0 -57 20 l-188 201q-176 -264 -455 -264q-236 0 -374 132t-138 337zM150 424q0 -135 111.5 -228.5t252.5 -93.5q227 0 371 236l-441 489q-294 -194 -294 -403zM367 1282q0 -139 137 -264q166 127 166 258q0 78 -44 118t-105.5 40t-107.5 -40t-46 -112z" />
<glyph unicode="'" horiz-adv-x="559" d="M0 1161q0 16 4 29l125 309q31 76 92 76q33 0 58.5 -24.5t25.5 -59.5q0 -18 -10 -43l-133 -301q-25 -55 -80 -55q-31 0 -56.5 20t-25.5 49z" />
<glyph unicode="(" horiz-adv-x="624" d="M0 721q0 487 291 805q29 23 57.5 22.5t48 -20t19.5 -45.5q0 -29 -25 -58q-248 -293 -248 -714q0 -211 61.5 -411t192.5 -335q18 -27 18.5 -55.5t-18 -47t-47.5 -18.5q-35 0 -63 29q-145 145 -216 375.5t-71 472.5z" />
<glyph unicode=")" horiz-adv-x="624" d="M-2 -90q0 29 18 55q131 135 192.5 335t61.5 411q0 422 -247 714q-25 29 -25 58q0 27 19.5 46t48 19t57.5 -22q291 -317 291 -805q0 -242 -71 -472.5t-216 -375.5q-29 -29 -64 -29q-29 0 -47 18.5t-18 47.5z" />
<glyph unicode="*" d="M276 997q0 27 23 50l211 110l-207 111q-27 25 -27 53q0 23 18.5 41t43.5 18q6 0 22 -4l205 -133l-12 240q12 57 61 57q47 0 62 -51l-14 -246l194 125q16 10 37 10q23 0 41 -17.5t18 -41.5q0 -31 -30 -55l-213 -107l209 -102q35 -18 34 -56q0 -25 -17 -42t-44 -17 q-14 0 -31 6l-198 119l14 -219q0 -33 -18.5 -50.5t-43.5 -17.5q-23 0 -41 16.5t-20 45.5l10 225l-198 -123q-16 -4 -27 -4q-25 0 -43.5 17t-18.5 42z" />
<glyph unicode="+" d="M51 561q0 84 92 84h373v375q0 41 22.5 64.5t61.5 23.5q35 0 59.5 -25.5t24.5 -62.5v-375h373q47 0 73.5 -22.5t26.5 -59.5q0 -90 -100 -90h-373v-387q0 -35 -23.5 -60.5t-58.5 -25.5q-39 0 -62.5 23.5t-23.5 62.5v387h-373q-92 0 -92 88z" />
<glyph unicode="," horiz-adv-x="557" d="M0 -205q0 12 6 27l137 334q29 66 84 65q31 0 53.5 -20.5t22.5 -48.5q0 -8 -4 -21l-156 -360q-20 -51 -67 -52q-29 0 -52.5 22.5t-23.5 53.5z" />
<glyph unicode="-" horiz-adv-x="823" d="M6 565q0 33 24.5 56.5t65.5 23.5h422q88 0 88 -80q0 -76 -88 -76h-422q-90 0 -90 76z" />
<glyph unicode="." horiz-adv-x="468" d="M0 102q0 43 29.5 73t72.5 30t73 -30t30 -73t-30 -72.5t-73 -29.5t-72.5 29.5t-29.5 72.5z" />
<glyph unicode="/" d="M266 39q0 18 6 33l557 1429q25 61 80 62q27 0 44.5 -19.5t17.5 -46.5t-13 -53l-571 -1444q-10 -31 -65 -31q-23 0 -39.5 19.5t-16.5 50.5z" />
<glyph unicode="0" horiz-adv-x="1214" d="M2 768q0 133 27.5 266t83 258t158 202t235.5 77h8q133 0 234.5 -76t155.5 -200t81 -256t27 -267q0 -131 -28 -263t-84 -256t-157.5 -201t-232.5 -77q-137 0 -240.5 74t-159 196t-82 254t-26.5 269zM172 764q0 -100 19.5 -204.5t57.5 -203t105.5 -161t155.5 -62.5 t155.5 65.5t104.5 166t54.5 202t17.5 193.5q0 106 -17.5 213.5t-54.5 208t-103.5 164t-154.5 63.5q-94 0 -165 -66.5t-106.5 -171t-52 -207t-16.5 -200.5z" />
<glyph unicode="1" horiz-adv-x="757" d="M-4 1348q0 66 76 86q305 86 313 86q49 0 66 -41q10 -20 10 -105v-1286q0 -39 -22.5 -63.5t-59.5 -24.5q-39 0 -61.5 24.5t-22.5 63.5v1253l-201 -57q-20 -4 -26 -4q-31 0 -51.5 18.5t-20.5 49.5z" />
<glyph unicode="2" horiz-adv-x="1077" d="M-4 1143q0 188 133 305t307 117q168 0 297 -108.5t129 -276.5q0 -197 -145 -389l-484 -635h576q76 0 76 -76q0 -80 -78 -80h-678q-113 0 -113 74q0 37 31 76l557 757q90 123 90 258q0 109 -79.5 175.5t-186.5 66.5q-109 0 -186.5 -72.5t-77.5 -201.5q0 -35 -21.5 -67 t-60.5 -32t-62.5 34t-23.5 75z" />
<glyph unicode="3" horiz-adv-x="1071" d="M-25 305q0 39 20.5 60.5t49.5 21.5q53 0 76 -53q84 -195 268 -195q123 0 210 77t87 214q0 109 -62.5 195t-177.5 104q-25 4 -118 4q-94 2 -94.5 76t92.5 74q96 0 116 4q86 16 134.5 98t48.5 178q0 115 -65.5 184.5t-182.5 69.5q-88 0 -151.5 -59.5t-63.5 -145.5 q0 -102 -78 -102q-88 0 -88 109q0 135 113.5 243.5t277.5 108.5q182 0 294 -117t112 -287q0 -195 -170 -340q115 -72 173 -178t58 -223q0 -182 -127 -316.5t-336 -134.5q-117 0 -213 52.5t-151 132.5q-52 73 -52 145z" />
<glyph unicode="4" horiz-adv-x="1234" d="M-4 483q0 43 27 78l534 862q59 96 158 97q57 0 94 -40t37 -108v-829h98q76 0 76 -82q0 -72 -68 -72h-106v-293q0 -96 -78 -96q-80 0 -80 96v291h-584q-51 0 -79.5 27.5t-28.5 68.5zM188 543h500v805z" />
<glyph unicode="5" horiz-adv-x="1116" d="M-14 233q0 35 19.5 54.5t45.5 19.5q39 0 64 -35q49 -63 135 -103t170 -40q143 0 237.5 104.5t94.5 239.5q0 139 -89.5 242.5t-248.5 103.5q-57 0 -115.5 -17.5t-87.5 -17.5q-84 0 -84 76q0 18 104 574q14 82 117 82h438q35 0 55.5 -26t20.5 -63q0 -78 -76 -77h-421 l-68 -396q68 16 156 17q219 0 340.5 -141.5t121.5 -337.5q0 -207 -133 -362t-372 -155q-170 0 -297 85t-127 173z" />
<glyph unicode="6" horiz-adv-x="1110" d="M2 522q0 268 145.5 516t372.5 453q33 31 70 31t61.5 -21.5t24.5 -60.5q0 -27 -23 -49q-127 -119 -242.5 -267.5t-166.5 -253.5q92 109 280 109q170 0 291 -137t121 -346q0 -213 -131 -367t-340 -154q-217 0 -340 161t-123 386zM162 492q0 -145 85 -255t226 -110 q141 10 224 116.5t83 245.5q0 137 -83 237.5t-236 100.5q-145 0 -222 -99t-77 -236z" />
<glyph unicode="7" horiz-adv-x="1110" d="M-4 1436q0 82 94 82h725q39 0 66.5 -27t27.5 -68q0 -25 -12 -55l-543 -1284q-37 -84 -98 -84q-72 0 -72 80q0 29 11 49l520 1223h-625q-94 0 -94 84z" />
<glyph unicode="8" horiz-adv-x="1103" d="M-4 444q0 125 72.5 232.5t183.5 159.5q-199 123 -199 348q0 160 118 268.5t284 108.5q168 0 279.5 -105.5t111.5 -271.5q0 -199 -199 -336q121 -57 191.5 -168t70.5 -242q0 -190 -131 -326.5t-321 -136.5q-205 0 -333 132t-128 337zM168 451q0 -133 80 -223.5t209 -90.5 q125 0 202.5 90t77.5 219q0 131 -81 221.5t-199 90.5q-125 0 -207 -91t-82 -216zM217 1173.5q0 -108.5 66.5 -185.5t173.5 -77q100 0 158.5 78t58.5 185q0 109 -65.5 172t-158 63t-163 -63.5t-70.5 -172z" />
<glyph unicode="9" horiz-adv-x="1124" d="M-6 1059q0 209 127 359.5t356 150.5q217 0 347 -159t130 -402q0 -154 -43 -309.5t-171 -352t-330 -360.5q-27 -23 -64 -23q-31 0 -51.5 18.5t-20.5 47.5q0 45 39 80q139 121 258 272t154 248q-100 -90 -262 -90q-215 0 -342 155.5t-127 364.5zM156 1049q0 -164 93 -260.5 t224 -96.5q141 0 233.5 90t92.5 262q0 145 -84 256t-244 111q-152 0 -233.5 -111.5t-81.5 -250.5z" />
<glyph unicode=":" horiz-adv-x="464" d="M0 102q0 43 29.5 73t72.5 30t73 -30t30 -73t-30 -72.5t-73 -29.5t-72.5 29.5t-29.5 72.5zM0 819q0 43 29.5 73t72.5 30t73 -30t30 -73t-30 -72.5t-73 -29.5t-72.5 29.5t-29.5 72.5z" />
<glyph unicode=";" horiz-adv-x="557" d="M0 -205q0 -31 23.5 -53.5t52.5 -22.5q47 0 67 52l156 360q4 12 4 21q0 29 -22.5 49t-53.5 20q-55 0 -84 -65l-137 -334q-6 -15 -6 -27zM102 819q0 43 30 73t73 30t72.5 -30t29.5 -73t-29.5 -72.5t-72.5 -29.5t-73 29.5t-30 72.5z" />
<glyph unicode="&#x3c;" horiz-adv-x="1331" d="M39 571q0 57 72 93l931 434q41 16 70 16q27 0 45.5 -18.5t18.5 -46.5q0 -51 -68 -84l-844 -406l828 -401q78 -37 77 -88q0 -31 -18 -49.5t-51 -18.5q-31 0 -80 23l-909 452q-72 35 -72 94z" />
<glyph unicode="=" d="M53 377q0 76 74 76h963q76 0 75 -74q0 -76 -75 -76h-963q-74 0 -74 74zM53 805q0 72 74 72h963q76 0 75 -78q0 -72 -75 -72h-963q-74 0 -74 78z" />
<glyph unicode="&#x3e;" horiz-adv-x="1331" d="M39 1049q0 29 18.5 47t44.5 18q29 0 70 -16l932 -434q72 -35 72 -93q0 -59 -72 -94l-909 -452q-49 -23 -80 -23q-33 0 -51.5 18.5t-18.5 49.5q0 51 78 88l827 401l-844 406q-67 33 -67 84z" />
<glyph unicode="?" horiz-adv-x="1017" d="M55 1188q0 154 110.5 244t252.5 90q150 0 254 -97.5t104 -269.5q0 -96 -40 -199.5t-113.5 -204t-135 -171t-145.5 -154.5q-31 -27 -59 -27q-33 0 -53.5 20.5t-20.5 55.5q0 31 45 76q111 113 177.5 189.5t126.5 193.5t60 219q0 104 -62 159.5t-148 55.5q-78 0 -136.5 -53 t-66.5 -133q-4 -41 -25.5 -64.5t-50.5 -23.5q-31 0 -52.5 24.5t-21.5 69.5zM205 102q0 43 29.5 73t72.5 30t73 -30t30 -73t-30 -72.5t-73 -29.5t-72.5 29.5t-29.5 72.5z" />
<glyph unicode="@" horiz-adv-x="1798" d="M35 739q0 369 207 604.5t565 235.5q307 0 497.5 -179t190.5 -495q0 -233 -85 -388t-218 -155q-111 0 -205 117q-104 -115 -237 -114q-166 0 -255 116.5t-89 280.5q0 172 95 299t263 127q109 0 199 -90q10 88 67 88q70 0 70 -99v-423q0 -164 86 -164q78 0 125 100t47 295 q0 250 -155.5 399.5t-397.5 149.5q-293 0 -460 -195.5t-167 -505.5q0 -285 173 -459.5t429 -174.5q340 0 498 176q39 41 76 41q25 0 41 -14.5t16 -39.5q0 -43 -27 -71q-106 -119 -274 -173.5t-340 -54.5q-311 0 -523 210t-212 556zM551 762q0 -104 55.5 -180t159.5 -76 q121 0 184 104v357q-76 82 -162 82q-109 0 -173 -86t-64 -201z" />
<glyph unicode="A" horiz-adv-x="1388" d="M0 72q0 16 8 41l463 1310q33 92 119 92.5t119 -92.5l479 -1310q8 -18 8 -43q0 -70 -70 -70q-55 0 -73 49l-107 262h-704l-84 -233q-29 -78 -92 -78q-66 0 -66 72zM285 467h606l-299 840z" />
<glyph unicode="B" horiz-adv-x="1241" d="M0 100v1317q0 98 84 99h395q70 0 141.5 -20.5t140 -60.5t111.5 -114t43 -166q0 -111 -65.5 -202t-165.5 -122q141 -23 245.5 -139.5t104.5 -265.5q0 -184 -128 -305t-306 -121h-481q-68 0 -90 16q-29 18 -29 84zM152 150h387q139 0 232 72.5t93 201.5q0 147 -117.5 232 t-279.5 85h-315v-591zM152 881h266q133 0 235.5 61.5t102.5 181.5q0 109 -87 175.5t-202 66.5h-315v-485z" />
<glyph unicode="C" horiz-adv-x="1449" d="M-2 764q0 154 46 296t132 257t224.5 184.5t308.5 69.5q252 0 432 -168q39 -33 39 -74q0 -37 -21.5 -59.5t-52.5 -22.5q-39 0 -64 25q-133 133 -340 133q-172 0 -297.5 -93t-183 -232.5t-57.5 -301.5q0 -258 144.5 -450.5t396.5 -192.5q195 0 335 141q23 23 52 23 q74 0 73 -76q0 -47 -30 -76q-195 -170 -439 -170q-168 0 -304 67t-221 179.5t-129 250.5t-44 290z" />
<glyph unicode="D" horiz-adv-x="1349" d="M0 84v1333q0 98 119 99h405q193 0 335 -115t209 -285t67 -364q0 -301 -181.5 -526.5t-470.5 -225.5h-397q-51 0 -68.5 16.5t-17.5 67.5zM152 150h321q231 0 365.5 179t134.5 423q0 162 -51.5 298t-161 226t-258.5 90h-350v-1216z" />
<glyph unicode="E" horiz-adv-x="1007" d="M0 92v1331q0 92 84 93h623q76 0 75 -76q0 -74 -75 -74h-557v-504h458q76 0 76 -78q0 -72 -76 -71h-458v-563h573q88 0 88 -76q0 -74 -88 -74h-639q-53 0 -68.5 17.5t-15.5 74.5z" />
<glyph unicode="F" horiz-adv-x="927" d="M0 61v1356q0 98 84 99h604q76 0 76 -76q0 -74 -76 -74h-536v-541h405q76 0 76 -77q0 -74 -76 -74h-405v-613q0 -61 -78 -61q-74 0 -74 61z" />
<glyph unicode="G" horiz-adv-x="1470" d="M0 782q0 164 44 307.5t129 254t219 174t304 63.5q117 0 243 -48t214 -140q35 -35 35 -68t-21.5 -59.5t-58.5 -26.5q-35 0 -72 33q-160 145 -348 145q-252 0 -386 -174t-134 -459q0 -162 54 -306t173 -243.5t281 -99.5q209 0 329.5 158t120.5 393q0 29 -8 31h-420 q-90 0 -90 74q0 76 97 75h444q80 0 105.5 -48t25.5 -134q0 -299 -169 -503t-443 -204q-162 0 -293 71t-211 187.5t-122 256.5t-42 290z" />
<glyph unicode="H" horiz-adv-x="1386" d="M0 74v1370q0 76 74 76q76 0 76 -76v-598h845v598q0 76 74 76q78 0 78 -76v-1370q0 -74 -78 -74q-74 0 -74 74v620h-845v-620q0 -74 -74 -74q-76 0 -76 74z" />
<glyph unicode="I" horiz-adv-x="391" d="M0 76v1368q0 76 74 76q76 0 76 -76v-1368q0 -76 -76 -76q-74 0 -74 76z" />
<glyph unicode="J" horiz-adv-x="882" d="M0 133q0 78 70 78q16 0 85.5 -47t149.5 -47q88 0 137.5 50t49.5 138v1139q0 76 75 76q78 0 78 -76v-1139q0 -152 -95 -242t-247 -90q-164 0 -278 103q-25 22 -25 57z" />
<glyph unicode="K" horiz-adv-x="1214" d="M0 66v1390q0 63 74 64q78 0 78 -64v-747l714 788q16 18 47 19q33 0 58.5 -26t25.5 -56q0 -29 -20 -48l-440 -481l475 -772q25 -23 24 -59q0 -33 -27.5 -54.5t-47.5 -21.5q-39 0 -70 35l-465 760l-274 -289v-438q0 -66 -74 -66q-78 0 -78 66z" />
<glyph unicode="L" horiz-adv-x="1052" d="M0 117v1327q0 76 74 76q76 0 76 -76v-1294h657q76 0 76 -74q0 -76 -76 -76h-707q-100 0 -100 117z" />
<glyph unicode="M" horiz-adv-x="1859" d="M0 72q0 16 2 24l203 1274q25 154 131 154q104 0 143 -138l336 -1116l344 1116q41 133 147.5 133.5t127.5 -149.5l190 -1278q0 -2 1 -8t1 -8q0 -33 -21.5 -53.5t-54.5 -20.5q-70 0 -82 82l-174 1243l-399 -1239q-27 -88 -84 -88t-84 88l-385 1241l-188 -1243 q-12 -84 -82 -84q-72 0 -72 70z" />
<glyph unicode="N" horiz-adv-x="1368" d="M0 78v1352q0 90 74 90q57 0 106 -74l799 -1176v1170q0 78 74 78q76 0 75 -78v-1350q0 -90 -73 -90q-59 0 -103 61l-802 1172v-1155q0 -78 -74 -78q-76 0 -76 78z" />
<glyph unicode="O" horiz-adv-x="1529" d="M0 776q0 152 42 291t120 252t205 180.5t284 67.5q211 0 364.5 -118t225.5 -295t72 -384q0 -205 -72 -381t-225.5 -292.5t-364.5 -116.5q-207 0 -358.5 117.5t-222 295.5t-70.5 383zM158 780q0 -170 54 -315.5t170 -241.5t273 -96q160 0 277 94t169 234.5t52 308.5 q0 264 -132 456.5t-370 192.5q-158 0 -273.5 -93t-167.5 -233.5t-52 -306.5z" />
<glyph unicode="P" horiz-adv-x="1241" d="M0 76v1360q0 82 84 82h434q213 0 357.5 -130.5t144.5 -334.5q0 -193 -143.5 -325t-346.5 -132h-380v-520q0 -76 -74 -76q-76 0 -76 76zM150 745h372q145 0 243.5 85t98.5 225q0 145 -103.5 229t-271.5 84h-339v-623z" />
<glyph unicode="Q" horiz-adv-x="1552" d="M0 776q0 152 42 291t120 252t205 180.5t284 67.5q211 0 364.5 -118t225.5 -295t72 -384q0 -274 -129 -487q16 -18 139 -154q23 -27 23 -55.5t-18.5 -50t-51.5 -21.5q-29 0 -47 18l-142 144q-193 -184 -436 -184q-207 0 -358.5 117.5t-222 295.5t-70.5 383zM160 780 q0 -170 54 -315.5t170 -241.5t273 -96q199 0 340 141l-114 107q-29 29 -29 59q0 37 24.5 62.5t57.5 25.5q31 0 53 -22l98 -99q68 147 68 363q0 264 -132 456.5t-370 192.5q-158 0 -273.5 -93t-167.5 -233.5t-52 -306.5z" />
<glyph unicode="R" horiz-adv-x="1259" d="M0 92v1344q0 82 117 82h471q217 0 342 -127t125 -299q0 -133 -81 -243t-235 -151l287 -561q18 -37 18 -71q0 -68 -65 -68q-49 0 -70 41l-329 627h-430v-574q0 -92 -74 -92q-76 0 -76 92zM150 815h454q141 0 218 79t77 191.5t-79 197.5t-216 85h-454v-553z" />
<glyph unicode="S" horiz-adv-x="1122" d="M0 168q0 70 70 70q35 0 71 -25q127 -78 272.5 -78t237.5 67.5t92 207.5q0 43 -22.5 81.5t-74.5 76.5t-92 61.5t-118 64.5q-104 55 -155.5 85t-127 87.5t-109.5 121t-34 138.5q0 195 131 309.5t330 114.5q174 0 348 -94q57 -33 58 -94q0 -33 -20.5 -56.5t-51.5 -23.5 q-20 0 -78 37q-115 72 -289 72q-104 0 -182 -75t-78 -181q0 -27 8.5 -51.5t32 -50t40.5 -42t60 -42t62.5 -37t74 -40t72.5 -38.5q70 -39 94.5 -52.5t84 -50.5t84 -63.5t58.5 -66.5t47 -85t13 -96q0 -213 -140 -329t-361 -116q-195 0 -353 103q-55 37 -55 90z" />
<glyph unicode="T" horiz-adv-x="1087" d="M0 1442q0 76 82 76h756q78 0 77 -76q0 -74 -77 -74h-303v-1282q0 -86 -74 -86q-78 0 -78 86v1282h-301q-82 0 -82 74z" />
<glyph unicode="U" horiz-adv-x="1396" d="M0 584v846q0 88 84 88q82 0 82 -88v-830q0 -457 426 -457q190 0 296.5 102.5t106.5 354.5v830q0 88 84 88t84 -88v-846q0 -164 -47 -285t-131 -189.5t-186.5 -100.5t-225.5 -32q-258 0 -415.5 145t-157.5 462z" />
<glyph unicode="V" horiz-adv-x="1351" d="M0 1448q0 74 78 74q57 0 80 -62l422 -1206l417 1206q23 59 72 60q33 0 61.5 -26t28.5 -58q0 -12 -6 -25l-457 -1284q-47 -127 -116 -127q-63 0 -105 109l-469 1302q-6 19 -6 37z" />
<glyph unicode="W" horiz-adv-x="1853" d="M0 1444q0 35 22.5 55.5t55.5 20.5q68 0 80 -76l211 -1239l348 1237q23 78 108 78q84 0 107 -78l338 -1235l205 1233q12 84 84 84q33 0 56 -22.5t23 -57.5q0 -12 -2 -19l-237 -1321q-8 -47 -45 -75.5t-84 -28.5q-98 0 -125 94l-324 1186l-321 -1153q-18 -66 -55 -98.5 t-80 -32.5q-45 0 -82 32.5t-47 88.5l-234 1308q-2 7 -2 19z" />
<glyph unicode="X" horiz-adv-x="1355" d="M0 57q0 33 25 70l454 707l-401 565q-18 27 -19 51q0 31 20.5 50.5t51.5 19.5q41 0 68 -37l374 -514l330 512q25 37 64 37q29 0 51 -21.5t22 -52.5q0 -25 -16 -47l-369 -545l480 -721q29 -45 28 -76q0 -57 -59 -57q-45 0 -78 45l-461 670l-428 -668q-31 -47 -78 -47 q-59 0 -59 59z" />
<glyph unicode="Y" horiz-adv-x="1163" d="M0 1448q0 72 68 72q39 0 63 -43l358 -598l351 594q29 47 73 47q68 0 68 -66q0 -20 -12 -43l-412 -698v-625q0 -88 -76 -88q-78 0 -78 88v625l-389 682q-14 26 -14 53z" />
<glyph unicode="Z" horiz-adv-x="1228" d="M0 86q0 45 23 80l796 1202h-713q-78 0 -77 74q0 76 77 76h824q102 0 102 -66q0 -37 -41 -100l-796 -1202h784q80 0 80 -72q0 -78 -80 -78h-907q-72 0 -72 86z" />
<glyph unicode="[" horiz-adv-x="552" d="M0 -27v1479q0 100 84 100h149q66 0 66 -73q0 -61 -63 -62h-86v-1413h86q63 0 63 -61q0 -70 -66 -70h-149q-84 0 -84 100z" />
<glyph unicode="\" horiz-adv-x="970" d="M0 1483q0 31 22.5 48t57.5 17q29 0 43 -18.5t33 -61.5l557 -1396q4 -12 4 -23q0 -27 -19.5 -45t-48.5 -18q-59 0 -88 69l-555 1397q-6 15 -6 31z" />
<glyph unicode="]" horiz-adv-x="552" d="M0 -51q0 55 53 55h97v1399q-6 0 -35 -1t-52 -1q-63 0 -63 65q0 70 63 70h154q82 0 82 -100v-1463q0 -100 -82 -100h-154q-63 0 -63 76z" />
<glyph unicode="^" d="M59 614q0 29 19 64l457 807q27 51 84 51t83 -51l441 -807q16 -33 16 -62q0 -70 -76 -69q-51 0 -96 82l-369 690l-389 -690q-27 -47 -43 -64.5t-47 -17.5q-33 0 -56.5 17t-23.5 50z" />
<glyph unicode="_" horiz-adv-x="1091" d="M-76 -194.5q0 67.5 76 67.5h1022q80 0 80 -70q0 -66 -80 -65h-1022q-76 0 -76 67.5z" />
<glyph unicode="`" horiz-adv-x="559" d="M-2 1130q0 18 8 35l137 320q27 57 78 57q37 0 60.5 -19.5t23.5 -54.5q0 -8 -4 -20l-139 -315q-31 -72 -74 -72q-39 0 -64.5 20t-25.5 49z" />
<glyph unicode="a" horiz-adv-x="1140" d="M10 326q0 170 130 266t304 96q207 0 310 -102v194q0 106 -82 171t-226 65q-76 0 -168 -24.5t-114 -24.5q-70 0 -70 63q0 49 58 74q150 61 340 61q197 0 306 -104.5t109 -265.5v-736q0 -31 -20.5 -53t-55 -22t-54 21.5t-21.5 51.5q-2 39 -2 70q-133 -143 -351 -143 q-162 0 -277.5 89t-115.5 253zM164 338q0 -104 76.5 -157.5t189.5 -53.5q125 0 223.5 61.5t98.5 161.5q0 88 -93.5 142.5t-214.5 54.5q-117 0 -198.5 -54.5t-81.5 -154.5z" />
<glyph unicode="b" horiz-adv-x="1179" d="M0 61v1457q0 80 76 79.5t76 -79.5v-580q33 96 133 166t204 70q223 0 350.5 -182.5t127.5 -424.5q0 -154 -51.5 -285.5t-163 -219t-263.5 -87.5q-111 0 -202.5 53.5t-134.5 149.5v-119q0 -37 -23 -59.5t-55 -22.5q-74 0 -74 84zM160 571q0 -182 87 -317t253 -135 q82 0 143.5 40t96 105.5t52 141t17.5 157.5q0 111 -28.5 211t-101.5 176t-179 76q-166 0 -253 -137.5t-87 -317.5z" />
<glyph unicode="c" horiz-adv-x="1064" d="M0 569q0 254 157.5 416t383.5 162q145 0 243 -45q70 -31 70 -74q0 -35 -18.5 -56.5t-49.5 -21.5q-8 0 -20 4q-111 47 -223 47q-166 0 -276.5 -122.5t-110.5 -319.5q0 -180 115.5 -308t277.5 -128q127 0 229 70q10 8 27 8q23 0 42 -19.5t19 -46.5q0 -37 -49 -76 q-125 -82 -272 -82q-231 0 -388 170t-157 422z" />
<glyph unicode="d" horiz-adv-x="1191" d="M0 559q0 154 51 290t162 230.5t262 94.5q100 0 195.5 -50.5t138.5 -140.5v537q0 80 78 79q74 0 74 -79v-1481q0 -68 -74 -68q-78 0 -78 70v137q-131 -205 -334 -205q-227 0 -351 172t-124 414zM158 557q0 -182 83 -314t232 -132q135 0 237.5 125.5t102.5 330.5 q0 207 -99.5 332t-232.5 125q-152 0 -237.5 -139.5t-85.5 -327.5z" />
<glyph unicode="e" horiz-adv-x="1236" d="M0 573q0 242 134 422.5t362 180.5q223 0 348 -141.5t125 -370.5q0 -90 -23.5 -128t-91.5 -38h-692q0 -137 114.5 -254t251.5 -117q88 0 149.5 22.5t129.5 81.5q41 37 88 37q68 0 68 -69q0 -27 -15 -41q-145 -182 -420 -183q-244 0 -386 172t-142 426zM164 645h653 q0 162 -86 270.5t-229 108.5q-145 0 -241.5 -111.5t-96.5 -267.5z" />
<glyph unicode="f" horiz-adv-x="704" d="M0 1055q0 80 84 80h96q0 188 69.5 286.5t229.5 98.5q90 0 90 -72q0 -68 -90 -68q-84 0 -116.5 -59t-32.5 -186q66 0 131 2q84 0 84 -78q0 -80 -88 -80h-127v-905q0 -74 -76 -74q-74 0 -74 74v907h-96q-84 0 -84 74z" />
<glyph unicode="g" horiz-adv-x="1198" d="M0 578q0 244 133 420t367 176q94 0 189 -57.5t128 -135.5v131q0 68 74 68q78 0 78 -72v-1030q0 -256 -144.5 -398.5t-347.5 -142.5q-215 0 -360 92q-41 27 -41 76q0 33 20.5 56.5t53.5 23.5q25 0 77 -31q115 -63 244 -63q150 0 248 94t98 274v105q-37 -94 -126 -140.5 t-191 -46.5q-233 0 -366.5 177.5t-133.5 423.5zM158 580q0 -215 101 -338t236.5 -123t231.5 119.5t96 334.5q0 211 -99 331t-235 120q-133 0 -232 -117.5t-99 -326.5z" />
<glyph unicode="h" horiz-adv-x="1077" d="M0 74v1446q0 80 74 79q76 0 76 -79v-525q100 176 301 176q158 0 281.5 -110.5t123.5 -278.5v-708q0 -74 -76 -74q-74 0 -73 74v643q0 145 -81 226t-194 81q-115 0 -198.5 -82t-83.5 -225v-643q0 -74 -76 -74q-74 0 -74 74z" />
<glyph unicode="i" horiz-adv-x="471" d="M0 1505q0 43 29.5 73t72.5 30t73 -30t30 -73t-30 -72.5t-73 -29.5t-72.5 29.5t-29.5 72.5zM31 76v1011q0 76 75 76q80 0 80 -76v-1011q0 -76 -77.5 -76t-77.5 76z" />
<glyph unicode="j" horiz-adv-x="430" d="M-213 -420q0 -72 90 -72q172 0 237.5 95.5t65.5 290.5v1193q0 74 -76 74q-78 0 -77 -74v-1193q0 -135 -28 -190.5t-122 -55.5q-90 0 -90 -68zM0 1505q0 43 29.5 73t72.5 30t73 -30t30 -73t-30 -72.5t-73 -29.5t-72.5 29.5t-29.5 72.5z" />
<glyph unicode="k" horiz-adv-x="1048" d="M-2 74v1448q0 76 78 75q76 0 76 -75v-953l583 551q23 18 51 19q33 0 55.5 -19.5t22.5 -50.5t-43 -74l-327 -307l376 -530q33 -55 33 -86q0 -37 -20.5 -56.5t-48.5 -19.5q-51 0 -78 45l-381 543l-223 -203v-307q0 -74 -78 -74q-76 0 -76 74z" />
<glyph unicode="l" horiz-adv-x="419" d="M0 76v1448q0 78 74 78q78 0 78 -78v-1448q0 -76 -76 -76t-76 76z" />
<glyph unicode="m" horiz-adv-x="1722" d="M0 78v987q0 90 76 90t76 -84v-80q41 82 123.5 132.5t173.5 50.5q100 0 185 -59.5t124 -156.5q49 96 147.5 156t212.5 60q160 0 271.5 -102.5t111.5 -260.5v-733q0 -74 -76 -74q-78 0 -77 74v667q0 115 -64.5 193t-173.5 78q-127 0 -207 -94.5t-80 -227.5v-616 q0 -76 -73 -76q-76 0 -76 76v667q0 115 -65.5 191t-174.5 76q-127 0 -205.5 -92.5t-78.5 -225.5v-616q0 -76 -74 -76q-76 0 -76 76z" />
<glyph unicode="n" horiz-adv-x="1079" d="M0 74v999q0 80 74 80q76 0 76 -80v-78q98 178 307 179q158 0 278.5 -109t120.5 -283v-708q0 -74 -76 -74q-74 0 -73 74v643q0 145 -81 226t-194 81q-115 0 -198.5 -82t-83.5 -225v-643q0 -74 -76 -74q-74 0 -74 74z" />
<glyph unicode="o" horiz-adv-x="1208" d="M0 575.5q0 245.5 132 422t364 176.5q156 0 271.5 -91.5t169.5 -227.5t54 -294q0 -244 -132 -414t-363.5 -170t-363.5 176.5t-132 422zM160 590q0 -180 87 -325.5t249 -145.5q164 0 251 127t87 303q0 111 -35 216t-115 183t-188 78q-166 0 -251 -129t-85 -307z" />
<glyph unicode="p" horiz-adv-x="1179" d="M0 -387v1481q0 80 76 80t76 -80v-156q33 96 133 166t204 70q223 0 350.5 -182.5t127.5 -424.5q0 -154 -51.5 -285.5t-163 -219t-263.5 -87.5q-111 0 -202.5 53.5t-134.5 149.5v-567q0 -37 -23 -59.5t-55 -22.5q-74 0 -74 84zM164 567q0 -182 87 -317t253 -135 q82 0 143.5 40t96 105.5t52 141t17.5 157.5q0 111 -28.5 211t-101.5 176t-179 76q-166 0 -253 -137.5t-87 -317.5z" />
<glyph unicode="q" horiz-adv-x="1189" d="M0 559q0 154 51 290t162 230.5t262 94.5q100 0 195.5 -50.5t138.5 -140.5v111q0 80 78 80q74 0 74 -80v-1497q0 -68 -74 -68q-78 0 -78 70v579q-131 -205 -334 -205q-227 0 -351 172t-124 414zM156 559q0 -182 83 -314t232 -132q135 0 237.5 126t102.5 330 q0 207 -99.5 332t-232.5 125q-152 0 -237.5 -139.5t-85.5 -327.5z" />
<glyph unicode="r" horiz-adv-x="858" d="M0 74v999q0 80 74 80q76 0 76 -80v-98q55 98 151 148.5t207 50.5q76 0 112.5 -28t36.5 -67q0 -33 -22.5 -56.5t-56.5 -23.5q-27 0 -65 7.5t-75 7.5q-102 0 -195 -91.5t-93 -205.5v-643q0 -74 -76 -74q-74 0 -74 74z" />
<glyph unicode="s" horiz-adv-x="1032" d="M16 160q0 84 68 84q27 0 59 -23q139 -92 283 -92q98 0 175 44t77 134q0 113 -236 197q-88 33 -145 58.5t-127 66.5t-104.5 93t-34.5 114q0 164 117.5 248.5t293.5 84.5q182 0 318 -73q39 -20 39 -72q0 -35 -19.5 -53.5t-50.5 -18.5q-25 0 -45 13q-92 53 -246 53 q-102 0 -173.5 -40t-71.5 -124q0 -20 8 -37.5t27.5 -34t38 -29t53 -28.5t56 -25.5t65.5 -27t65 -25.5q68 -29 102.5 -44t88 -47t80 -61.5t48 -74.5t21.5 -98q0 -174 -125 -259.5t-299 -85.5q-188 0 -379 121q-27 19 -27 62z" />
<glyph unicode="t" horiz-adv-x="794" d="M0 1065q0 68 63 68h76v167q0 74 74 74q76 0 76 -74v-167h180q80 0 80 -70t-76 -70h-184v-626q0 -137 27.5 -191.5t121.5 -54.5q90 0 90 -68q0 -72 -90 -71q-172 0 -235.5 95t-63.5 290v628h-65q-74 0 -74 70z" />
<glyph unicode="u" horiz-adv-x="1083" d="M2 430v641q0 76 74 76q76 0 76 -76l2 -575q0 -113 20.5 -191t59 -115.5t81.5 -52t99 -14.5q127 0 224 121t97 323v512q0 80 70 80q74 0 74 -80v-1040q0 -68 -74 -68q-78 0 -78 70v137q-129 -213 -332 -213q-168 0 -280.5 113.5t-112.5 351.5z" />
<glyph unicode="v" horiz-adv-x="1042" d="M0 1067q0 33 21.5 52.5t54.5 19.5q59 0 88 -90l256 -783l260 785q31 88 92 88q72 0 72 -72q0 -18 -6 -33l-334 -973q-20 -61 -90 -61q-61 0 -82 61l-326 971q-6 19 -6 35z" />
<glyph unicode="w" horiz-adv-x="1779" d="M0 1055q0 82 76 82q61 0 86 -64l256 -817l276 807q25 72 92 72q33 0 65 -19.5t40 -52.5l262 -799l250 811q20 63 86 64q68 0 67 -78q0 -20 -10 -51q0 -23 -307 -932q-27 -76 -92 -76q-61 0 -88 82l-275 805l-264 -811q-25 -78 -98.5 -78t-102.5 84q-319 948 -319 971z " />
<glyph unicode="x" horiz-adv-x="1128" d="M0 68q0 41 35 88l336 456l-291 389q-23 33 -23 60q0 31 23.5 52.5t54.5 21.5q49 0 80 -45l250 -359l254 361q31 45 78 45q33 0 56.5 -20.5t23.5 -51.5t-25 -61l-301 -379l340 -461q39 -51 39 -96q0 -68 -66 -68q-57 0 -102 63l-307 426l-308 -428q-39 -57 -88 -57 q-59 1 -59 64z" />
<glyph unicode="y" horiz-adv-x="1069" d="M0 1059q0 76 72 76q66 0 88 -72l270 -836l281 846q20 63 86 64q74 0 73 -74q0 -31 -6 -47l-506 -1413q-23 -68 -92 -68t-69 74q0 23 8 45l139 360l-334 996q-10 31 -10 49z" />
<glyph unicode="z" horiz-adv-x="1081" d="M0 72q0 39 37 90l573 823h-508q-76 0 -75 76q0 74 75 74h625q92 0 92 -62q0 -43 -43 -104l-577 -824h577q76 0 76 -71q0 -74 -76 -74h-657q-119 0 -119 72z" />
<glyph unicode="{" horiz-adv-x="800" d="M0 719q0 10 3 18t10 14.5t12.5 11.5t17.5 10t18 7l22 7q15 5 19 8q111 45 111 319q0 80 -8 172q0 145 71.5 197.5t204.5 52.5q27 0 46.5 -20.5t19.5 -42.5q0 -53 -88 -54q-115 0 -115 -155q0 -29 4 -85.5t4 -78.5q0 -293 -172 -387q170 -61 170 -371q0 -33 -2 -90t-2 -80 q0 -78 27.5 -123t105.5 -47q68 -2 68 -53q0 -59 -66 -60q-166 0 -224 62.5t-58 167.5q0 31 4 102.5t4 110.5q0 270 -105 319q-6 2 -23.5 5t-24.5 5.5t-20.5 7.5t-18.5 10t-10 15.5t-5 24.5z" />
<glyph unicode="|" horiz-adv-x="403" d="M0 39v1546q0 88 76 88q74 0 74 -88v-1546q0 -76 -76 -76q-74 0 -74 76z" />
<glyph unicode="}" horiz-adv-x="800" d="M0 -51q0 51 68 53q78 2 105.5 47t27.5 123q0 23 -2 80t-2 90q0 309 170 371q-172 94 -172 387q0 23 4 79t4 85q0 156 -115 155q-88 0 -88 54q0 23 20.5 43t45.5 20q133 0 204.5 -52t71.5 -198q-8 -92 -8 -172q0 -274 110 -319q4 -2 20 -8l21 -7q6 -2 18.5 -7t17.5 -10 t12.5 -11.5t10.5 -14.5t3 -18q0 -14 -5 -24.5t-10.5 -15.5t-18.5 -10t-20.5 -7.5t-24.5 -5.5t-24 -5q-104 -49 -104 -319q0 -39 4 -110.5t4 -102.5q0 -104 -58.5 -167t-223.5 -63q-66 1 -66 60z" />
<glyph unicode="~" horiz-adv-x="1255" d="M0 465q0 72 94 156t185 84q92 0 236 -78t196 -78q47 0 79.5 39t64.5 76.5t75 37.5q72 0 71 -90q0 -68 -103 -149.5t-198 -81.5q-82 0 -216 77t-201 77q-61 0 -117 -74q-59 -80 -98 -80q-68 0 -68 84z" />
<glyph unicode="&#xa3;" horiz-adv-x="1384" d="M0 784q0 78 76 78h184q-111 158 -110 316q0 178 129 271t313 93q188 0 337.5 -103.5t162.5 -277.5q0 -35 -21.5 -59.5t-52.5 -24.5q-53 0 -80 64q-16 117 -116.5 184.5t-223.5 67.5q-113 0 -190.5 -59.5t-77.5 -168.5q0 -141 96 -303h274q74 0 74 -76q0 -74 -74 -73h-235 q33 -92 33 -178q0 -199 -205 -379h762q76 0 75 -78q0 -74 -75 -74h-895q-84 0 -84 72q0 43 67 112q94 100 142.5 183.5t48.5 185.5q0 74 -25 156h-233q-76 -1 -76 71z" />
<glyph unicode="&#xa4;" horiz-adv-x="1640" d="M72 80q0 47 61 100l201 162q-31 76 -31 178q0 113 43 203l-213 172q-61 51 -61 100q0 27 20.5 41.5t46.5 14.5q33 0 78 -35l213 -178q115 104 275 104q154 0 270 -98l207 172q41 35 78 35q27 0 47 -14.5t20 -41.5q0 -51 -61 -100l-199 -160q53 -96 53 -215 q0 -104 -37 -194l183 -146q61 -49 61 -100q0 -27 -20.5 -41t-46.5 -14q-41 0 -78 34l-176 146q-119 -125 -295 -125q-184 0 -303 137l-191 -158q-37 -35 -78 -34q-27 0 -47 14t-20 41zM436 518q0 -147 81 -229t193.5 -82t194.5 81t82 230q0 139 -84 219t-196.5 80 t-191.5 -77t-79 -222z" />
<glyph unicode="&#xa5;" horiz-adv-x="1261" d="M0 1473q0 31 20.5 51t47.5 20q39 0 63 -43l371 -622l370 622q25 43 70 43q66 0 66 -63q0 -27 -19 -62l-256 -432h166q88 0 88 -78q0 -76 -88 -75h-258l-72 -121v-84h267q90 0 90 -78q0 -76 -90 -76h-267v-403q0 -86 -75 -86q-78 0 -78 86v403h-266q-88 0 -89 74 q0 33 24 56.5t65 23.5h266v84l-70 121h-244q-90 0 -90 73q0 33 24.5 56.5t65.5 23.5h156l-244 432q-14 27 -14 54z" />
<glyph unicode="&#xa6;" horiz-adv-x="403" d="M0 74v663q0 43 20.5 68.5t53.5 25.5q76 0 76 -75v-682q0 -74 -76 -74q-74 0 -74 74zM0 983v616q0 43 20.5 69t53 26t54.5 -20.5t22 -57.5v-633q0 -76 -76 -76q-74 0 -74 76z" />
<glyph unicode="&#xa7;" horiz-adv-x="1099" d="M10 735q0 55 25.5 84t60.5 29q37 0 64.5 -28.5t27.5 -69.5q0 -63 47.5 -109.5t118 -72t153.5 -57.5t153.5 -62.5t117.5 -89t47 -138.5q0 -164 -118.5 -252t-292.5 -88q-170 0 -318 80q-39 20 -39 72q0 35 21.5 55.5t52.5 20.5q25 0 45 -13q92 -53 246 -53q102 0 168.5 38 t66.5 122q0 20 -8 37.5t-26.5 33t-36 27.5t-51 26.5t-55 23.5t-65.5 25.5t-65 24.5q-340 133 -340 334zM10 1225q0 164 119 252t293 88q170 0 317 -80q39 -20 39 -72q0 -35 -21.5 -55.5t-51.5 -20.5q-25 0 -46 13q-92 53 -245 53q-102 0 -169 -38t-67 -122q0 -20 8.5 -37.5 t26.5 -33t35.5 -27.5t51.5 -26.5t55.5 -24t65.5 -25.5t64 -25q340 -133 340 -333q0 -55 -25.5 -84t-60.5 -29q-37 0 -64.5 28.5t-27.5 69.5q0 63 -47 109.5t-117.5 72t-153.5 57.5t-154 62.5t-118 89t-47 138.5z" />
<glyph unicode="&#xa8;" horiz-adv-x="839" d="M0 1331q0 43 29.5 73t72.5 30t73 -30t30 -73t-30 -72.5t-73 -29.5t-72.5 29.5t-29.5 72.5zM410 1331q0 43 29.5 73t72.5 30t72.5 -30t29.5 -73t-29.5 -72.5t-72.5 -29.5t-72.5 29.5t-29.5 72.5z" />
<glyph unicode="&#xa9;" horiz-adv-x="1806" d="M0 745.5q0 337.5 216 555t558 217.5q340 0 555 -219.5t215 -557.5q0 -336 -217 -552t-557 -216t-555 217.5t-215 555zM158 749.5q0 -274.5 173 -455.5t447.5 -181t445.5 178t171 452q0 276 -173 458.5t-447.5 182.5t-445.5 -180t-171 -454.5zM346 752q0 207 132 345 t315 138q92 0 194 -45q57 -29 57 -66q0 -29 -17 -49t-42 -20q-8 0 -16 4q-90 39 -183 39q-137 0 -221 -97.5t-84 -259.5q0 -133 84 -237.5t207 -104.5q76 0 121 19q68 23 74 22q61 0 61 -59q0 -35 -33 -62q-66 -53 -207 -53q-197 0 -319.5 142.5t-122.5 343.5z" />
<glyph unicode="&#xab;" horiz-adv-x="933" d="M0 559q0 29 27 70l198 334q16 25 47 24.5t55.5 -23t24.5 -51.5q0 -18 -10 -34l-199 -318l211 -360q4 -12 4 -15q0 -20 -27.5 -37.5t-56.5 -17.5q-33 0 -49 25l-198 333q-27 45 -27 70zM319 559q0 29 23 70l205 334q16 23 51 22q82 0 82 -63q0 -23 -14 -43l-203 -318 q16 -23 213 -360q4 -8 4 -15q0 -20 -27.5 -37.5t-56.5 -17.5q-35 0 -49 25l-205 333q-23 41 -23 70z" />
<glyph unicode="&#xac;" horiz-adv-x="1376" d="M0 565q0 33 24.5 56.5t63.5 23.5h948q86 0 86 -96v-303q0 -88 -73 -88q-33 0 -57.5 23.5t-24.5 64.5v243h-879q-88 0 -88 76z" />
<glyph unicode="&#xad;" horiz-adv-x="1570" />
<glyph unicode="&#xae;" horiz-adv-x="1804" d="M0 766q0 336 217 553t555 217t554 -220t216 -556q0 -338 -215 -554t-555 -216q-338 0 -555 220t-217 556zM150 764q0 -272 178 -455.5t452 -183.5q276 0 444.5 175t168.5 458q0 276 -172 457.5t-449 181.5q-274 0 -448 -180.5t-174 -452.5zM461 367v778q0 59 26 74 q20 10 56 10h301q127 0 211 -80q82 -76 82 -182q0 -182 -228 -244l121 -182q96 -152 96 -176q0 -61 -82 -62q-51 0 -81 64l-203 356h-166v-356q0 -63 -70 -64q-63 1 -63 64zM594 840h233q74 0 117 37.5t43 95t-44 98.5t-116 41h-233v-272z" />
<glyph unicode="&#xb0;" horiz-adv-x="655" d="M0 1436q0 84 54.5 144t148.5 60q90 0 147.5 -59t57.5 -147q0 -86 -58.5 -145.5t-146.5 -59.5t-145.5 59.5t-57.5 147.5zM102 1434q0 -43 27 -73t76 -30q41 0 70.5 31t29.5 70q0 43 -27.5 73.5t-72.5 30.5q-47 0 -75 -29.5t-28 -72.5z" />
<glyph unicode="&#xb1;" d="M59 741q0 78 84 78h373v326q0 80 78 80q37 0 62.5 -22.5t25.5 -57.5v-326h373q47 0 74.5 -23.5t27.5 -60.5q0 -78 -102 -78h-373v-346q0 -35 -24.5 -56.5t-61.5 -21.5q-80 0 -80 78v346h-373q-84 0 -84 84zM63 76q0 33 25 56.5t66 23.5h915q88 0 88 -78q0 -76 -88 -76 h-915q-91 0 -91 74z" />
<glyph unicode="&#xb2;" horiz-adv-x="690" d="M-2 1309q0 94 66.5 152.5t152.5 58.5q84 0 148.5 -54.5t64.5 -138.5q0 -100 -72 -194l-241 -318h286q39 0 39 -39t-39 -39h-340q-55 0 -55 37q0 20 15 37l278 379q45 61 45 129q0 55 -40 88t-93 33t-92 -36t-39 -101q0 -16 -11.5 -33t-29.5 -17q-20 0 -31.5 18t-11.5 38z " />
<glyph unicode="&#xb3;" horiz-adv-x="638" d="M-12 889q0 41 35 41q29 0 36 -27q43 -96 136 -96q61 0 104 39t43 106q0 53 -30.5 96.5t-88.5 53.5q-2 0 -28.5 1t-30.5 1q-47 0 -47 37t45 37q2 0 28.5 1t30.5 1q43 8 66.5 49t23.5 90q0 57 -32.5 92t-90.5 35q-45 0 -76.5 -30t-31.5 -73q0 -51 -39 -51q-43 0 -43 54 q0 68 56.5 122t138.5 54q92 0 147 -57.5t55 -143.5q0 -96 -84 -170q115 -74 115 -201q0 -90 -63.5 -157.5t-167.5 -67.5q-117 0 -183 92q-24 35 -24 72z" />
<glyph unicode="&#xb5;" horiz-adv-x="1081" d="M-2 -408v1469q0 76 78 76q76 0 76 -76v-674q0 -109 71.5 -177.5t177.5 -68.5q135 0 219.5 95.5t84.5 236.5v588q0 76 77 76q76 0 76 -76v-973q0 -88 -76 -88q-72 0 -75 78q-2 27 -2 72q-117 -166 -322 -166q-66 0 -130.5 29.5t-100.5 80.5v-502q0 -76 -78 -75 q-76 -1 -76 75z" />
<glyph unicode="&#xb6;" horiz-adv-x="1177" d="M0 1147q0 193 126 295t376 102h420q29 -2 48 -21.5t19 -46t-19.5 -47t-47.5 -20.5h-99v-1339q0 -29 -20.5 -49.5t-49 -20.5t-48 20.5t-19.5 49.5v1339h-154v-1339q0 -29 -20 -49.5t-49 -20.5t-47.5 20.5t-18.5 49.5v745q-182 0 -289.5 92.5t-107.5 239.5z" />
<glyph unicode="&#xb7;" horiz-adv-x="468" d="M0 717q0 43 29.5 72.5t72.5 29.5t73 -29.5t30 -72.5t-30 -73t-73 -30t-72.5 30t-29.5 73z" />
<glyph unicode="&#xbb;" horiz-adv-x="937" d="M0 178q0 10 6 19l213 364l-213 359q-6 10 -6 18q0 20 24.5 37.5t55.5 17.5q39 0 57 -30l199 -334q27 -41 26 -70q0 -25 -26 -70l-199 -333q-12 -23 -55 -23q-82 0 -82 45zM317 176q0 12 9 21l215 364l-205 318q-18 31 -19 55q0 59 72 59q45 0 64 -30l206 -334 q25 -39 25 -70t-25 -70l-206 -333q-12 -23 -60 -23q-76 0 -76 43z" />
<glyph unicode="&#xbd;" horiz-adv-x="1941" d="M-4 1399q0 51 57 65q223 63 236 64q37 0 49 -31q8 -16 8 -78v-964q0 -29 -17.5 -47.5t-43.5 -18.5q-29 0 -46.5 18.5t-17.5 47.5v940l-151 -43q-6 -2 -19 -2q-25 0 -40 13t-15 36zM391 47q0 16 4 25l559 1444q18 47 70 47q57 0 57 -58q0 -16 -6 -35l-565 -1441 q-14 -41 -55 -41q-27 0 -45.5 16t-18.5 43zM1071 856q0 141 100.5 229.5t231.5 88.5q125 0 222 -82t97 -207q0 -147 -110 -293l-363 -475h432q57 0 58 -58q0 -59 -60 -59h-508q-84 0 -84 55q0 25 23 58l418 567q68 94 67 194q0 80 -60 130.5t-138 50.5q-82 0 -140.5 -54.5 t-58.5 -150.5q0 -27 -16.5 -50.5t-44.5 -23.5q-31 0 -48.5 25.5t-17.5 54.5z" />
<glyph unicode="&#x192;" horiz-adv-x="800" d="M-61 -420q0 68 90 68q94 0 121.5 55t27.5 191l2 1087h-96q-84 0 -84 74q0 80 84 80h96q0 195 63.5 290t235.5 95q90 0 90 -72q0 -68 -90 -68q-94 0 -121.5 -55t-27.5 -190q66 0 131 2q84 0 84 -78q0 -80 -88 -80h-127v-528q0 -217 -1 -298t-1 -147v-112 q0 -195 -63.5 -290.5t-235.5 -95.5q-90 0 -90 72z" />
<glyph unicode="&#x384;" horiz-adv-x="733" d="M2 1151q0 18 8 35l137 319q27 57 74 58q72 0 72 -74q0 -8 -4 -21l-139 -315q-31 -72 -72 -72q-76 0 -76 70z" />
<glyph unicode="&#x385;" horiz-adv-x="976" d="M0 1331q0 43 29.5 73t72.5 30t73 -30t30 -73t-30 -72.5t-73 -29.5t-72.5 29.5t-29.5 72.5zM319 1294q0 18 9 35l137 320q27 57 78 57q74 0 73 -74q0 -8 -4 -20l-139 -316q-31 -72 -74 -71q-39 0 -59.5 19t-20.5 50zM614 1331q0 43 30 73t73 30t72.5 -30t29.5 -73 t-29.5 -72.5t-72.5 -29.5t-73 29.5t-30 72.5z" />
<glyph unicode="&#x386;" horiz-adv-x="1415" d="M2 1151q0 18 8 35l137 319q27 57 74 58q72 0 72 -74q0 -8 -4 -21l-139 -315q-31 -72 -72 -72q-76 0 -76 70zM41 72q0 16 8 41l463 1310q33 92 119 92.5t119 -92.5l479 -1310q8 -18 8 -43q0 -70 -70 -70q-55 0 -73 49l-107 262h-704l-84 -233q-29 -78 -93 -78 q-65 0 -65 72zM326 467h606l-299 840z" />
<glyph unicode="&#x388;" horiz-adv-x="1443" d="M2 1151q0 18 8 35l137 319q27 57 74 58q72 0 72 -74q0 -8 -4 -21l-139 -315q-31 -72 -72 -72q-76 0 -76 70zM430 92v1331q0 92 84 93h623q76 0 75 -76q0 -74 -75 -74h-557v-504h458q76 0 76 -78q0 -72 -76 -71h-458v-563h573q88 0 88 -76q0 -74 -88 -74h-639 q-53 0 -68.5 17.5t-15.5 74.5z" />
<glyph unicode="&#x389;" horiz-adv-x="1826" d="M2 1151q0 18 8 35l137 319q27 57 74 58q72 0 72 -74q0 -8 -4 -21l-139 -315q-31 -72 -72 -72q-76 0 -76 70zM451 74v1370q0 76 73 76q76 0 76 -76v-598h846v598q0 76 74 76q78 0 77 -76v-1370q0 -74 -77 -74q-74 0 -74 74v620h-846v-620q0 -74 -74 -74q-75 0 -75 74z" />
<glyph unicode="&#x38a;" horiz-adv-x="835" d="M2 1151q0 18 8 35l137 319q27 57 74 58q72 0 72 -74q0 -8 -4 -21l-139 -315q-31 -72 -72 -72q-76 0 -76 70zM430 76v1368q0 76 74 76q76 0 76 -76v-1368q0 -76 -76 -76q-74 0 -74 76z" />
<glyph unicode="&#x38c;" horiz-adv-x="1775" d="M2 1151q0 18 8 35l137 319q27 57 74 58q72 0 72 -74q0 -8 -4 -21l-139 -315q-31 -72 -72 -72q-76 0 -76 70zM246 776q0 152 42 291t119.5 252t204.5 180.5t285 67.5q211 0 364.5 -118t225.5 -295t72 -384q0 -205 -72 -381t-225.5 -292.5t-364.5 -116.5 q-207 0 -358.5 117.5t-222 295.5t-70.5 383zM403 780q0 -170 54.5 -315.5t170 -241.5t273.5 -96q160 0 276.5 94t169 234.5t52.5 308.5q0 264 -132 456.5t-370 192.5q-158 0 -273.5 -93t-168 -233.5t-52.5 -306.5z" />
<glyph unicode="&#x38e;" horiz-adv-x="1568" d="M2 1151q0 18 8 35l137 319q27 57 74 58q72 0 72 -74q0 -8 -4 -21l-139 -315q-31 -72 -72 -72q-76 0 -76 70zM410 1448q0 72 67 72q39 0 64 -43l358 -598l350 594q29 47 74 47q68 0 68 -66q0 -20 -13 -43l-411 -698v-625q0 -88 -76 -88q-78 0 -78 88v625l-389 682 q-14 26 -14 53z" />
<glyph unicode="&#x38f;" horiz-adv-x="1822" d="M2 1151q0 18 8 35l137 319q27 57 74 58q72 0 72 -74q0 -8 -4 -21l-139 -315q-31 -72 -72 -72q-76 0 -76 70zM334 932q0 258 166 446.5t458 188.5q152 0 275 -55.5t200.5 -146.5t118.5 -203.5t41 -233.5q0 -254 -166.5 -437.5t-468.5 -183.5q-295 0 -459.5 185.5 t-164.5 439.5zM440 74q0 76 70 76h907q70 0 70 -76q0 -74 -70 -74h-907q-70 0 -70 74zM487 933.5q0 -196.5 125 -338.5t351 -142q231 0 356 136t125 329q0 201 -130 351t-353 150q-221 0 -347.5 -144.5t-126.5 -341z" />
<glyph unicode="&#x390;" horiz-adv-x="380" d="M-307 1454q0 43 29.5 72.5t72.5 29.5t73 -29.5t30 -72.5t-30 -72.5t-73 -29.5t-72.5 29.5t-29.5 72.5zM-2 74q0 -74 78 -74q82 0 82 74v999q0 76 -82 76q-78 0 -78 -76v-999zM12 1417q0 18 8 35l138 320q27 57 78 57q74 0 73 -74q0 -8 -4 -20l-139 -316q-31 -72 -74 -71 q-39 0 -59.5 19t-20.5 50zM307 1454q0 43 30 72.5t73 29.5t72.5 -29.5t29.5 -72.5t-29.5 -72.5t-72.5 -29.5t-73 29.5t-30 72.5z" />
<glyph unicode="&#x391;" horiz-adv-x="1388" d="M0 72q0 16 8 41l463 1310q33 92 119 92.5t119 -92.5l479 -1310q8 -18 8 -43q0 -70 -70 -70q-55 0 -73 49l-107 262h-704l-84 -233q-29 -78 -92 -78q-66 0 -66 72zM285 467h606l-299 840z" />
<glyph unicode="&#x392;" horiz-adv-x="1181" d="M0 100v1317q0 98 84 99h313q70 0 141.5 -20.5t140.5 -60.5t112 -114t43 -166q0 -111 -66 -202t-166 -122q141 -23 245.5 -139.5t104.5 -265.5q0 -184 -128 -305t-306 -121h-399q-68 0 -90 16q-29 18 -29 84zM152 150h305q139 0 232 72.5t93 201.5q0 147 -117.5 232 t-279.5 85h-233v-591zM152 881h184q133 0 235.5 61.5t102.5 181.5q0 109 -87 175.5t-202 66.5h-233v-485z" />
<glyph unicode="&#x393;" horiz-adv-x="1007" d="M0 76v1343q0 98 84 99h645q35 0 57.5 -22.5t22.5 -55.5q0 -72 -80 -72h-577v-1292q0 -76 -78 -76q-74 0 -74 76z" />
<glyph unicode="&#x394;" horiz-adv-x="1423" d="M0 51q0 18 8 37l490 1339q33 94 116 95q90 0 117 -95l508 -1339q8 -18 8 -39q0 -49 -123 -49h-1030q-94 0 -94 51zM197 162h850l-433 1149z" />
<glyph unicode="&#x395;" horiz-adv-x="1007" d="M0 92v1331q0 92 84 93h623q76 0 75 -76q0 -74 -75 -74h-557v-504h458q76 0 76 -78q0 -72 -76 -71h-458v-563h573q88 0 88 -76q0 -74 -88 -74h-639q-53 0 -68.5 17.5t-15.5 74.5z" />
<glyph unicode="&#x396;" horiz-adv-x="1228" d="M0 86q0 45 23 80l796 1202h-713q-78 0 -77 74q0 76 77 76h824q102 0 102 -66q0 -37 -41 -100l-796 -1202h784q80 0 80 -72q0 -78 -80 -78h-907q-72 0 -72 86z" />
<glyph unicode="&#x397;" horiz-adv-x="1386" d="M0 74v1370q0 76 74 76q76 0 76 -76v-598h845v598q0 76 74 76q78 0 78 -76v-1370q0 -74 -78 -74q-74 0 -74 74v620h-845v-620q0 -74 -74 -74q-76 0 -76 74z" />
<glyph unicode="&#x398;" horiz-adv-x="1527" d="M0 776q0 152 42 291t120 252t205 180.5t284 67.5q211 0 364.5 -118t225.5 -295t72 -384q0 -205 -72 -381t-225.5 -292.5t-364.5 -116.5q-207 0 -358.5 117.5t-222 295.5t-70.5 383zM160 780q0 -170 54 -315.5t170 -241.5t273 -96q160 0 277 94t169 234.5t52 308.5 q0 264 -132 456.5t-370 192.5q-158 0 -273.5 -93t-167.5 -233.5t-52 -306.5zM291 778q0 76 76 76h567q76 0 76 -78q0 -74 -76 -74h-567q-76 0 -76 76z" />
<glyph unicode="&#x399;" horiz-adv-x="391" d="M0 76v1368q0 76 74 76q76 0 76 -76v-1368q0 -76 -76 -76q-74 0 -74 76z" />
<glyph unicode="&#x39a;" horiz-adv-x="1214" d="M0 66v1390q0 63 74 64q78 0 78 -64v-747l714 788q16 18 47 19q33 0 58.5 -26t25.5 -56q0 -29 -20 -48l-440 -481l475 -772q25 -23 24 -59q0 -33 -27.5 -54.5t-47.5 -21.5q-39 0 -70 35l-465 760l-274 -289v-438q0 -66 -74 -66q-78 0 -78 66z" />
<glyph unicode="&#x39b;" horiz-adv-x="1409" d="M0 66q0 10 4 22l485 1339q33 94 117 94.5t117 -94.5l496 -1312q10 -31 10 -49q0 -31 -20.5 -48.5t-53.5 -17.5t-51.5 19.5t-34.5 62.5l-463 1229l-450 -1250q-20 -61 -76 -61q-33 0 -56.5 18.5t-23.5 47.5z" />
<glyph unicode="&#x39c;" horiz-adv-x="1859" d="M0 72q0 16 2 24l203 1274q25 154 131 154q104 0 143 -138l336 -1116l344 1116q41 133 147.5 133.5t127.5 -149.5l190 -1278q0 -2 1 -8t1 -8q0 -33 -21.5 -53.5t-54.5 -20.5q-70 0 -82 82l-174 1243l-399 -1239q-27 -88 -84 -88t-84 88l-385 1241l-188 -1243 q-12 -84 -82 -84q-72 0 -72 70z" />
<glyph unicode="&#x39d;" horiz-adv-x="1368" d="M0 78v1352q0 90 74 90q57 0 106 -74l799 -1176v1170q0 78 74 78q76 0 75 -78v-1350q0 -90 -73 -90q-59 0 -103 61l-802 1172v-1155q0 -78 -74 -78q-76 0 -76 78z" />
<glyph unicode="&#x39e;" horiz-adv-x="1329" d="M-6 80q0 76 88 76h946q86 0 86 -78q0 -74 -86 -74h-946q-88 0 -88 76zM23 1442q0 76 75 76h912q76 0 75 -76q0 -74 -75 -74h-912q-75 0 -75 74zM168 791q0 72 74 71h606q76 0 76 -78q0 -72 -76 -71h-606q-74 0 -74 78z" />
<glyph unicode="&#x39f;" horiz-adv-x="1529" d="M0 776q0 152 42 291t120 252t205 180.5t284 67.5q211 0 364.5 -118t225.5 -295t72 -384q0 -205 -72 -381t-225.5 -292.5t-364.5 -116.5q-207 0 -358.5 117.5t-222 295.5t-70.5 383zM158 780q0 -170 54 -315.5t170 -241.5t273 -96q160 0 277 94t169 234.5t52 308.5 q0 264 -132 456.5t-370 192.5q-158 0 -273.5 -93t-167.5 -233.5t-52 -306.5z" />
<glyph unicode="&#x3a0;" horiz-adv-x="1351" d="M0 76v1368q0 78 74 78h973q31 0 54 -23.5t23 -54.5v-1368q0 -76 -73 -76q-76 0 -76 76v1292h-825v-1292q0 -76 -78 -76q-72 0 -72 76z" />
<glyph unicode="&#x3a1;" horiz-adv-x="1097" d="M0 76v1360q0 82 84 82h352q213 0 357.5 -130.5t144.5 -334.5q0 -193 -143.5 -325t-345.5 -132h-299v-520q0 -76 -74 -76q-76 0 -76 76zM150 745h290q145 0 243.5 85t98.5 225q0 145 -103.5 229t-270.5 84h-258v-623z" />
<glyph unicode="&#x3a3;" horiz-adv-x="1193" d="M0 86q0 45 23 80l383 592q14 25 14 41q0 20 -19 47l-335 504q-39 57 -39 100q0 68 104 68h823q76 0 76 -78q0 -74 -76 -74h-714l338 -516q20 -29 20 -55q0 -20 -14 -41l-394 -604h791q76 0 76 -78q0 -72 -76 -72h-909q-72 0 -72 86z" />
<glyph unicode="&#x3a4;" horiz-adv-x="1087" d="M0 1442q0 76 82 76h756q78 0 77 -76q0 -74 -77 -74h-303v-1282q0 -86 -74 -86q-78 0 -78 86v1282h-301q-82 0 -82 74z" />
<glyph unicode="&#x3a5;" horiz-adv-x="1163" d="M0 1448q0 72 68 72q39 0 63 -43l358 -598l351 594q29 47 73 47q68 0 68 -66q0 -20 -12 -43l-412 -698v-625q0 -88 -76 -88q-78 0 -78 88v625l-389 682q-14 26 -14 53z" />
<glyph unicode="&#x3a6;" horiz-adv-x="1542" d="M0 838q0 238 183.5 391t426.5 153v111q0 76 76 76t76 -76q0 -4 -4 -111q246 0 428 -154.5t182 -391.5q0 -236 -182 -386.5t-426 -150.5v-221q0 -78 -74 -78q-76 0 -76 78v221q-258 0 -434 149.5t-176 389.5zM145 838q0 -176 141.5 -287t323.5 -111v801 q-193 0 -329 -112.5t-136 -290.5zM760 440q195 0 329 107.5t134 288t-135.5 293t-327.5 112.5v-801z" />
<glyph unicode="&#x3a7;" horiz-adv-x="1355" d="M0 57q0 33 25 70l454 707l-401 565q-18 27 -19 51q0 31 20.5 50.5t51.5 19.5q41 0 68 -37l374 -514l330 512q25 37 64 37q29 0 51 -21.5t22 -52.5q0 -25 -16 -47l-369 -545l480 -721q29 -45 28 -76q0 -57 -59 -57q-45 0 -78 45l-461 670l-428 -668q-31 -47 -78 -47 q-59 0 -59 59z" />
<glyph unicode="&#x3a8;" horiz-adv-x="1546" d="M0 920v526q0 74 78 74q72 0 72 -74v-500q0 -213 120.5 -345t327.5 -132v1024q0 76 74 76q76 0 76 -76v-1024q221 0 333.5 124t112.5 353v500q0 76 76 76q78 0 78 -76v-526q0 -274 -165 -434t-435 -160v-252q0 -74 -76 -74q-74 0 -74 74v252q-272 6 -435 165t-163 429z " />
<glyph unicode="&#x3a9;" horiz-adv-x="1495" d="M6 932q0 258 166 446.5t459 188.5q152 0 274.5 -55.5t200.5 -146.5t119 -203.5t41 -233.5q0 -254 -167 -437.5t-468 -183.5q-295 0 -460 185.5t-165 439.5zM113 74q0 76 69 76h908q70 0 69 -76q0 -74 -69 -74h-908q-69 0 -69 74zM160 933.5q0 -196.5 125 -338.5t350 -142 q231 0 356 136t125 329q0 201 -130 351t-353 150q-221 0 -347 -144.5t-126 -341z" />
<glyph unicode="&#x3aa;" horiz-adv-x="391" d="M-242 1720q0 43 30 73t73 30t72.5 -30t29.5 -73t-29.5 -72.5t-72.5 -29.5t-73 29.5t-30 72.5zM0 76q0 -76 74 -76q76 0 76 76v1368q0 76 -76 76q-74 0 -74 -76v-1368zM168 1720q0 43 29.5 73t72.5 30t73 -30t30 -73t-30 -72.5t-73 -29.5t-72.5 29.5t-29.5 72.5z" />
<glyph unicode="&#x3ab;" horiz-adv-x="1163" d="M0 1448q0 -27 14 -53l389 -682v-625q0 -88 78 -88q76 0 76 88v625l412 698q12 23 12 43q0 66 -68 66q-45 0 -73 -47l-351 -594l-358 598q-25 43 -63 43q-68 0 -68 -72zM174 1720q0 43 29.5 73t72.5 30t73 -30t30 -73t-30 -72.5t-73 -29.5t-72.5 29.5t-29.5 72.5z M584 1720q0 43 29.5 73t72.5 30t72.5 -30t29.5 -73t-29.5 -72.5t-72.5 -29.5t-72.5 29.5t-29.5 72.5z" />
<glyph unicode="&#x3ac;" horiz-adv-x="1220" d="M-2 559q0 113 30.5 220.5t88 196.5t150.5 143.5t208 54.5q102 0 201.5 -53.5t130.5 -147.5v94q0 80 80 80q76 0 76 -80v-999q0 -68 -76 -68q-80 0 -80 70v123q-41 -86 -133 -153t-199 -67q-227 0 -352 172t-125 414zM160 559q0 -182 83 -314t230 -132q133 0 235.5 126 t102.5 330q0 207 -98.5 332t-231.5 125q-150 0 -235.5 -139.5t-85.5 -327.5zM412 1397q0 18 8 35l137 319q27 57 74 57q72 0 71 -73q0 -8 -4 -21l-139 -315q-31 -72 -72 -72q-75 0 -75 70z" />
<glyph unicode="&#x3ad;" horiz-adv-x="989" d="M-14 283q0 88 74.5 180t187.5 123q-104 37 -155.5 105.5t-51.5 139.5q0 133 122 224.5t288 91.5q115 0 218 -32t103 -95q0 -33 -21.5 -57.5t-52.5 -24.5q-20 0 -69 23q-90 45 -183 45q-113 0 -183 -54.5t-70 -134.5q0 -51 55 -100t141 -49h125q47 0 71.5 -22.5 t24.5 -55.5q0 -31 -23.5 -54.5t-66.5 -23.5h-127q-113 -23 -179.5 -82t-66.5 -131q0 -80 73 -135t206 -55q119 0 231 45q70 25 95 24q31 0 46 -16.5t15 -40.5q0 -43 -42 -76t-107.5 -49t-127 -23.5t-116.5 -7.5q-193 0 -313.5 94.5t-120.5 223.5zM309 1397q0 18 8 35 l138 319q27 57 73 57q72 0 72 -73q0 -8 -4 -21l-139 -315q-31 -72 -72 -72q-76 0 -76 70z" />
<glyph unicode="&#x3ae;" horiz-adv-x="1077" d="M-2 74v999q0 80 76 80q78 0 78 -80v-69q96 170 305 170q158 0 279.5 -109t121.5 -283v-1200q0 -74 -78 -74q-76 0 -75 74v1135q0 145 -81 226t-192 81q-115 0 -197.5 -82t-82.5 -225v-643q0 -74 -78 -74q-76 0 -76 74zM289 1397q0 18 8 35l137 319q27 57 74 57 q72 0 72 -73q0 -8 -5 -21l-139 -315q-31 -72 -71 -72q-76 0 -76 70z" />
<glyph unicode="&#x3af;" horiz-adv-x="380" d="M-2 74v999q0 76 78 76q82 0 82 -76v-999q0 -74 -82 -74q-78 0 -78 74zM2 1397q0 18 8 35l137 319q27 57 74 57q72 0 72 -73q0 -8 -4 -21l-139 -315q-31 -72 -72 -72q-76 0 -76 70z" />
<glyph unicode="&#x3b0;" horiz-adv-x="1083" d="M-2 371q0 -172 127 -284t301 -112t303 114t129 282v690q0 76 -78 76q-76 0 -75 -76v-641q0 -125 -79 -208t-200 -83t-197.5 83t-76.5 208v641q0 76 -78 76q-76 0 -76 -76v-690zM20 1454q0 43 30 72.5t73 29.5t72.5 -29.5t29.5 -72.5t-29.5 -72.5t-72.5 -29.5t-73 29.5 t-30 72.5zM340 1417q0 18 8 35l137 320q27 57 78 57q74 0 74 -74q0 -8 -4 -20l-139 -316q-31 -72 -74 -71q-39 0 -59.5 19t-20.5 50zM635 1454q0 43 29.5 72.5t72.5 29.5t73 -29.5t30 -72.5t-30 -72.5t-73 -29.5t-72.5 29.5t-29.5 72.5z" />
<glyph unicode="&#x3b1;" horiz-adv-x="1220" d="M-2 559q0 113 30.5 220.5t88 196.5t150.5 143.5t208 54.5q102 0 201.5 -53.5t130.5 -147.5v94q0 80 80 80q76 0 76 -80v-999q0 -68 -76 -68q-80 0 -80 70v123q-41 -86 -133 -153t-199 -67q-227 0 -352 172t-125 414zM160 559q0 -182 83 -314t230 -132q133 0 235.5 126 t102.5 330q0 207 -98.5 332t-231.5 125q-150 0 -235.5 -139.5t-85.5 -327.5z" />
<glyph unicode="&#x3b2;" horiz-adv-x="1150" d="M-2 -385v1530q0 199 109.5 320.5t316.5 121.5q180 0 287.5 -120.5t107.5 -276.5q0 -72 -52 -152t-110 -110q131 -61 208 -184t77 -252q0 -201 -136 -354.5t-355 -153.5q-205 0 -297 122v-489q0 -88 -78 -88t-78 86zM152 426q0 -133 85 -214t218 -81q137 0 230 108.5 t93 258.5q0 113 -69.5 200.5t-178.5 124.5q-6 0 -104 6l-57 5q-84 14 -84 71.5t82 71.5q37 0 71 2q66 0 74 4q68 23 105.5 81t37.5 132q0 104 -65.5 175t-167.5 71q-82 0 -137.5 -28t-83 -83t-37.5 -117.5t-10 -148.5z" />
<glyph unicode="&#x3b3;" horiz-adv-x="1091" d="M-2 1098q0 29 25.5 49t56.5 20q66 0 94 -82l285 -829l284 834q29 78 86 77q31 0 56.5 -23.5t25.5 -56.5q0 -18 -4 -26l-47 -127q-283 -752 -319 -895v-420q0 -96 -84 -96q-80 0 -80 98v418l-375 1028q-4 13 -4 31z" />
<glyph unicode="&#x3b4;" horiz-adv-x="1179" d="M-2 506q0 156 104.5 299t264.5 190q-90 47 -148.5 127t-58.5 158q0 123 104.5 209t304.5 86q86 0 193.5 -37t107.5 -98q0 -23 -18 -43.5t-43 -20.5q-18 0 -72 17q-72 35 -176 34q-123 0 -186.5 -40.5t-63.5 -106.5q0 -63 69 -130t177 -110q84 -33 148.5 -71.5t132 -102 t104.5 -158t37 -212.5q0 -221 -130 -370t-357 -149q-225 0 -359.5 155t-134.5 374zM158 508q0 -156 95 -272.5t236 -116.5q150 0 243 101.5t93 258.5q0 172 -91 286t-247 114q-152 0 -240.5 -112t-88.5 -259z" />
<glyph unicode="&#x3b5;" horiz-adv-x="989" d="M-14 283q0 88 74.5 180t187.5 123q-104 37 -155.5 105.5t-51.5 139.5q0 133 122 224.5t288 91.5q115 0 218 -32t103 -95q0 -33 -21.5 -57.5t-52.5 -24.5q-20 0 -69 23q-90 45 -183 45q-113 0 -183 -54.5t-70 -134.5q0 -51 55 -100t141 -49h125q47 0 71.5 -22.5 t24.5 -55.5q0 -31 -23.5 -54.5t-66.5 -23.5h-127q-113 -23 -179.5 -82t-66.5 -131q0 -80 73 -135t206 -55q119 0 231 45q70 25 95 24q31 0 46 -16.5t15 -40.5q0 -43 -42 -76t-107.5 -49t-127 -23.5t-116.5 -7.5q-193 0 -313.5 94.5t-120.5 223.5z" />
<glyph unicode="&#x3b6;" horiz-adv-x="1064" d="M-2 541q0 242 178 505t414 390h-400q-43 0 -70.5 18.5t-27.5 52.5q0 37 27.5 56.5t70.5 19.5h596q78 0 78 -72q0 -57 -73 -79q-70 -27 -172.5 -110t-206 -199.5t-175 -271.5t-71.5 -300q0 -72 13.5 -129t30.5 -97t52 -74t61.5 -53.5t76 -38t78 -25.5t81.5 -21 q102 -27 137 -39q154 -59 154 -207q0 -98 -42 -181t-112 -83q-27 0 -47 22.5t-20 46.5q0 12 30 66q41 66 41 115q0 41 -33.5 68.5t-68.5 38.5t-113 30q-59 14 -93 23.5t-93 32t-94 46t-79 65.5t-68.5 93t-42 126t-17.5 165z" />
<glyph unicode="&#x3b7;" horiz-adv-x="1077" d="M-2 74v999q0 80 76 80q78 0 78 -80v-69q96 170 305 170q158 0 279.5 -109t121.5 -283v-1200q0 -74 -78 -74q-76 0 -75 74v1135q0 145 -81 226t-192 81q-115 0 -197.5 -82t-82.5 -225v-643q0 -74 -78 -74q-76 0 -76 74z" />
<glyph unicode="&#x3b8;" horiz-adv-x="1200" d="M-2 770q0 135 25.5 268t80 261t154.5 207t234 79q131 0 232 -81t155.5 -210t81 -264t26.5 -266q0 -139 -27.5 -270.5t-83 -249t-157 -189t-232.5 -71.5q-133 0 -233 74.5t-153.5 196.5t-78 251t-24.5 264zM156 762q0 -96 16 -197.5t52 -203t105.5 -166t164.5 -64.5 q92 0 160.5 65.5t103.5 169t50 204t15 196.5q0 94 -15 199.5t-50 215t-101.5 180.5t-156.5 71q-94 0 -166 -70t-108 -179.5t-53 -216t-17 -204.5zM244 784q0 80 73 80h353q70 0 69 -80q0 -72 -69 -71h-353q-73 -1 -73 71z" />
<glyph unicode="&#x3b9;" horiz-adv-x="380" d="M-2 74v999q0 76 78 76q82 0 82 -76v-999q0 -74 -82 -74q-78 0 -78 74z" />
<glyph unicode="&#x3ba;" horiz-adv-x="1069" d="M-2 74v997q0 76 78 76q76 0 76 -76v-502l583 551q23 18 51 19q33 0 55.5 -19.5t22.5 -50.5t-43 -74l-327 -307l376 -530q33 -55 33 -86q0 -37 -20.5 -56.5t-48.5 -19.5q-51 0 -78 45l-381 543l-223 -203v-307q0 -74 -78 -74q-76 0 -76 74z" />
<glyph unicode="&#x3bb;" horiz-adv-x="1107" d="M2 63q0 20 8 39l355 942q-12 31 -74 201t-88 246q-4 16 -4 25q0 31 24.5 49t59.5 18q63 0 96 -88l475 -1370q10 -31 10 -51q0 -74 -71 -74q-68 0 -93 70l-258 755l-272 -749q-27 -76 -94 -76q-74 0 -74 63z" />
<glyph unicode="&#x3bc;" horiz-adv-x="1081" d="M0 -408v1469q0 76 76 76q74 0 74 -76v-674q0 -109 72.5 -177.5t178.5 -68.5q137 0 221.5 95.5t84.5 236.5v588q0 76 75 76q74 0 74 -76v-973q0 -88 -73.5 -88t-73.5 78q-2 33 -2 78q-113 -172 -324 -172q-66 0 -131.5 31.5t-101.5 84.5v-508q0 -76 -76 -75q-74 -1 -74 75 z" />
<glyph unicode="&#x3bd;" horiz-adv-x="1042" d="M-2 1067q0 33 21.5 52.5t56.5 19.5q59 0 90 -90l254 -777l258 779q31 88 94 88q74 0 74 -72q0 -18 -6 -33l-334 -973q-23 -61 -92 -61q-61 0 -84 61l-326 971q-6 19 -6 35z" />
<glyph unicode="&#x3be;" horiz-adv-x="1038" d="M-2 395q0 164 121 291t258 156q-129 39 -192.5 106.5t-63.5 149.5q0 121 116.5 222t290.5 116h-338q-43 0 -70.5 18.5t-27.5 52.5q0 37 27.5 56.5t70.5 19.5h576q78 0 78 -72q0 -78 -66 -86q-63 -6 -135 -24.5t-158 -52t-142 -96t-56 -140.5t101 -134t177 -56 q47 0 82 -24t35 -60.5t-34 -60t-77 -23.5q-66 0 -134 -22.5t-127.5 -63.5t-97.5 -112t-38 -157q0 -51 24.5 -95t57.5 -70.5t90 -52t96 -38t103 -30.5q41 -10 94 -27q84 -27 138 -83t54 -136q0 -86 -44 -175t-111 -89q-27 0 -47.5 22.5t-20.5 46.5q0 12 31 66q41 66 41 115 q0 72 -100 106q-43 14 -109 31q-68 16 -104.5 27.5t-102 35t-104.5 52t-81 69.5t-61.5 97t-19.5 124z" />
<glyph unicode="&#x3bf;" horiz-adv-x="1171" d="M-2 575.5q0 245.5 132 422t366 176.5q156 0 272.5 -91.5t170.5 -227.5t54 -294q0 -244 -132 -414t-365.5 -170t-365.5 176.5t-132 422zM162 590q0 -113 32.5 -216.5t111.5 -179t190 -75.5q164 0 249.5 127t85.5 303q0 178 -89 327.5t-246 149.5q-164 0 -249 -129 t-85 -307z" />
<glyph unicode="&#x3c0;" horiz-adv-x="1097" d="M-2 74v989q0 33 19.5 56.5t50.5 23.5h727q76 0 75 -82v-987q0 -74 -75.5 -74t-75.5 74v925h-565v-925q0 -74 -80 -74q-76 0 -76 74z" />
<glyph unicode="&#x3c1;" horiz-adv-x="1179" d="M0 -395v973q0 260 132 428t364 168q236 0 357.5 -168t121.5 -441q0 -262 -136.5 -425t-346.5 -163q-92 0 -183.5 47.5t-152.5 147.5v-567q0 -76 -80 -76q-76 0 -76 76zM160 582q0 -221 100 -339t240 -118q131 0 227 117.5t96 320.5q0 84 -17.5 163t-53 148.5t-100 111.5 t-146.5 42q-170 0 -258 -117.5t-88 -328.5z" />
<glyph unicode="&#x3c2;" horiz-adv-x="1191" d="M31 569q0 252 180 422t410 170q115 0 237 -55q31 -14 51.5 -36.5t20.5 -41.5q0 -35 -21.5 -60.5t-52.5 -25.5q-8 0 -20 4q-111 47 -224 47q-170 0 -291.5 -122.5t-121.5 -323.5q0 -76 14 -137.5t47 -103.5t63.5 -70.5t84 -50t87 -32t93 -24.5t93.5 -23.5t80 -31t70.5 -47 t42 -67.5t17.5 -97q0 -98 -42 -181t-112 -83q-27 0 -47 22.5t-20 46.5q0 16 26 66q39 84 39 114q0 39 -32.5 68t-68.5 41t-108 31q-57 14 -93 24.5t-94 34t-95 49t-82 70.5t-70.5 99t-43 132t-17.5 172z" />
<glyph unicode="&#x3c3;" horiz-adv-x="1333" d="M-2 588q0 246 137 409.5t377 163.5l557 -2q41 -4 69.5 -24.5t28.5 -55.5q0 -29 -25.5 -53.5t-58.5 -24.5q-31 0 -295 23q92 -66 149.5 -200t57.5 -271q0 -244 -136 -410t-374 -166q-156 0 -269.5 90.5t-165.5 226.5t-52 294zM162 586q0 -111 33.5 -213.5t111.5 -177 t187 -74.5q162 0 254 127t92 297q0 176 -91.5 325.5t-248.5 149.5q-160 0 -249 -130t-89 -304z" />
<glyph unicode="&#x3c4;" horiz-adv-x="1105" d="M-2 1071q0 68 65 68h713q82 0 82 -70t-78 -70h-284v-632q0 -135 26.5 -190.5t120.5 -55.5q92 0 92 -68q0 -72 -92 -71q-174 0 -237.5 95t-63.5 290v630h-268q-76 0 -76 74z" />
<glyph unicode="&#x3c5;" horiz-adv-x="1083" d="M-2 371v690q0 76 76 76q78 0 78 -76v-641q0 -125 76.5 -208t197.5 -83t200 83t79 208v641q0 76 75 76q78 0 78 -76v-690q0 -168 -129 -282t-303 -114t-301 112t-127 284z" />
<glyph unicode="&#x3c6;" horiz-adv-x="1533" d="M0 555q0 182 82 348t227 252q16 10 41 10q29 0 50.5 -15t21.5 -38q0 -37 -45 -74q-102 -84 -161.5 -218t-59.5 -271q0 -162 96 -280.5t283 -143.5v512q0 98 5 163.5t25.5 143.5t56 124t103.5 77t164 31q131 0 230.5 -92.5t143.5 -219.5t44 -260q0 -266 -172 -441 t-447 -179v-381q0 -78 -76 -78q-78 0 -77 78v381q-178 6 -302 90t-178.5 207.5t-54.5 273.5zM688 125q209 2 333 138t124 343q0 92 -23.5 186.5t-85 172t-147.5 77.5q-53 0 -90 -20.5t-56.5 -46t-32 -77.5t-14.5 -83t-4 -96.5t-4 -85.5v-508z" />
<glyph unicode="&#x3c7;" horiz-adv-x="1077" d="M-2 -420q0 23 18 68l344 747l-297 611q-16 37 -16 61q0 76 76 76q57 0 78 -49l250 -527l278 523q25 49 74 49q33 0 55.5 -22.5t22.5 -57.5q0 -29 -15 -58l-329 -606l368 -743q16 -37 17 -60q0 -20 -9 -34q-16 -35 -61 -35q-63 0 -96 69l-307 639l-285 -647 q-29 -66 -101 -65q-45 0 -59 32q-6 13 -6 29z" />
<glyph unicode="&#x3c8;" horiz-adv-x="1421" d="M-2 584v483q0 98 74 98q35 0 60.5 -27.5t25.5 -68.5v-485q0 -461 356 -467v1085q0 82 76 82q78 0 78 -82v-1085q180 2 269 125t89 327v500q0 94 76 94q35 0 59.5 -26.5t24.5 -69.5v-483q0 -262 -136.5 -432t-381.5 -175v-348q0 -109 -78 -108q-76 0 -76 108v348 q-246 4 -381 175.5t-135 431.5z" />
<glyph unicode="&#x3c9;" horiz-adv-x="1390" d="M2 436q0 231 70.5 409.5t189.5 282.5q23 18 62 19q27 0 42 -17.5t15 -44.5q0 -18 -27 -49q-2 -4 -10 -12q-188 -227 -188 -575q0 -152 53 -236t127 -84q59 0 110.5 66.5t63.5 181.5v395q0 41 24.5 64.5t57.5 23.5q31 0 53.5 -21.5t22.5 -58.5v-403q12 -115 63 -181.5 t111 -66.5q74 0 129 85t55 237q0 338 -199 577q-31 37 -30 62q0 27 15 44t42 17q39 0 61 -18q260 -229 261 -682q0 -211 -95.5 -340t-224.5 -129q-184 0 -268 237q-43 -119 -116 -177t-157 -58q-123 0 -218 127.5t-95 324.5z" />
<glyph unicode="&#x3ca;" horiz-adv-x="380" d="M-229 1454q0 43 29.5 72.5t72.5 29.5t72.5 -29.5t29.5 -72.5t-29.5 -72.5t-72.5 -29.5t-72.5 29.5t-29.5 72.5zM-2 74q0 -74 78 -74q82 0 82 74v999q0 76 -82 76q-78 0 -78 -76v-999zM180 1454q0 43 30 72.5t73 29.5t72.5 -29.5t29.5 -72.5t-29.5 -72.5t-72.5 -29.5 t-73 29.5t-30 72.5z" />
<glyph unicode="&#x3cb;" horiz-adv-x="1083" d="M-2 371q0 -172 127 -284t301 -112t303 114t129 282v690q0 76 -78 76q-76 0 -75 -76v-641q0 -125 -79 -208t-200 -83t-197.5 83t-76.5 208v641q0 76 -78 76q-76 0 -76 -76v-690zM109 1454q0 43 29.5 72.5t72.5 29.5t72.5 -29.5t29.5 -72.5t-29.5 -72.5t-72.5 -29.5 t-72.5 29.5t-29.5 72.5zM518 1454q0 43 30 72.5t73 29.5t72.5 -29.5t29.5 -72.5t-29.5 -72.5t-72.5 -29.5t-73 29.5t-30 72.5z" />
<glyph unicode="&#x3cc;" horiz-adv-x="1171" d="M-2 575.5q0 245.5 132 422t366 176.5q156 0 272.5 -91.5t170.5 -227.5t54 -294q0 -244 -132 -414t-365.5 -170t-365.5 176.5t-132 422zM162 590q0 -113 32.5 -216.5t111.5 -179t190 -75.5q164 0 249.5 127t85.5 303q0 178 -89 327.5t-246 149.5q-164 0 -249 -129 t-85 -307zM412 1397q0 18 8 35l137 319q27 57 74 57q72 0 71 -73q0 -8 -4 -21l-139 -315q-31 -72 -72 -72q-75 0 -75 70z" />
<glyph unicode="&#x3cd;" horiz-adv-x="1083" d="M-2 371v690q0 76 76 76q78 0 78 -76v-641q0 -125 76.5 -208t197.5 -83t200 83t79 208v641q0 76 75 76q78 0 78 -76v-690q0 -168 -129 -282t-303 -114t-301 112t-127 284zM330 1397q0 18 8 35l137 319q27 57 74 57q72 0 72 -73q0 -8 -5 -21l-139 -315q-31 -72 -71 -72 q-76 0 -76 70z" />
<glyph unicode="&#x3ce;" horiz-adv-x="1390" d="M2 436q0 231 70.5 409.5t189.5 282.5q23 18 62 19q27 0 42 -17.5t15 -44.5q0 -18 -27 -49q-2 -4 -10 -12q-188 -227 -188 -575q0 -152 53 -236t127 -84q59 0 110.5 66.5t63.5 181.5v395q0 41 24.5 64.5t57.5 23.5q31 0 53.5 -21.5t22.5 -58.5v-403q12 -115 63 -181.5 t111 -66.5q74 0 129 85t55 237q0 338 -199 577q-31 37 -30 62q0 27 15 44t42 17q39 0 61 -18q260 -229 261 -682q0 -211 -95.5 -340t-224.5 -129q-184 0 -268 237q-43 -119 -116 -177t-157 -58q-123 0 -218 127.5t-95 324.5zM500 1395q0 18 8 35l137 319q27 57 74 57 q72 0 72 -73q0 -8 -5 -21l-139 -315q-31 -72 -72 -72q-75 0 -75 70z" />
<glyph unicode="&#x2000;" horiz-adv-x="913" />
<glyph unicode="&#x2001;" horiz-adv-x="1828" />
<glyph unicode="&#x2002;" horiz-adv-x="913" />
<glyph unicode="&#x2003;" horiz-adv-x="1828" />
<glyph unicode="&#x2004;" horiz-adv-x="608" />
<glyph unicode="&#x2005;" horiz-adv-x="456" />
<glyph unicode="&#x2006;" horiz-adv-x="303" />
<glyph unicode="&#x2007;" horiz-adv-x="303" />
<glyph unicode="&#x2008;" horiz-adv-x="227" />
<glyph unicode="&#x2009;" horiz-adv-x="364" />
<glyph unicode="&#x200a;" horiz-adv-x="100" />
<glyph unicode="&#x2010;" horiz-adv-x="823" d="M6 565q0 33 24.5 56.5t65.5 23.5h422q88 0 88 -80q0 -76 -88 -76h-422q-90 0 -90 76z" />
<glyph unicode="&#x2011;" horiz-adv-x="823" d="M6 565q0 33 24.5 56.5t65.5 23.5h422q88 0 88 -80q0 -76 -88 -76h-422q-90 0 -90 76z" />
<glyph unicode="&#x2012;" horiz-adv-x="823" d="M6 565q0 33 24.5 56.5t65.5 23.5h422q88 0 88 -80q0 -76 -88 -76h-422q-90 0 -90 76z" />
<glyph unicode="&#x2013;" horiz-adv-x="1466" d="M0 565q0 33 24.5 56.5t63.5 23.5h1036q88 0 88 -80q0 -76 -88 -76h-1036q-88 0 -88 76z" />
<glyph unicode="&#x2014;" horiz-adv-x="1871" d="M0 565q0 33 24.5 56.5t63.5 23.5h1442q88 0 88 -80q0 -76 -88 -76h-1442q-88 0 -88 76z" />
<glyph unicode="&#x2018;" horiz-adv-x="557" d="M0 1479q0 29 24.5 48t55.5 19q45 0 63 -41l154 -360q8 -10 8 -25q0 -27 -25.5 -49t-52.5 -22q-55 0 -84 71l-137 334q-6 13 -6 25z" />
<glyph unicode="&#x2019;" horiz-adv-x="557" d="M0 1120q0 14 8 25l154 360q18 41 63 41q31 0 55.5 -19.5t24.5 -47.5q0 -12 -6 -25l-137 -334q-29 -72 -84 -71q-27 0 -52.5 22t-25.5 49z" />
<glyph unicode="&#x201a;" horiz-adv-x="557" d="M0 -203q0 12 6 25l137 334q27 66 88 65q27 0 50.5 -19.5t23.5 -45.5q0 -14 -8 -25l-154 -360q-18 -41 -63 -41q-31 0 -55.5 19t-24.5 48z" />
<glyph unicode="&#x201c;" horiz-adv-x="890" d="M0 1479q0 29 24.5 48t55.5 19q45 0 63 -41l154 -360q8 -10 8 -25q0 -27 -25.5 -49t-52.5 -22q-55 0 -84 71l-137 334q-6 13 -6 25zM348 1479q0 29 24.5 48t55.5 19q45 0 64 -41l153 -360q8 -10 8 -25q0 -27 -25.5 -49t-52.5 -22q-55 0 -83 71l-138 334q-6 13 -6 25z" />
<glyph unicode="&#x201d;" horiz-adv-x="890" d="M0 1120q0 14 8 25l154 360q18 41 63 41q31 0 55.5 -19.5t24.5 -47.5q0 -12 -6 -25l-137 -334q-29 -72 -84 -71q-27 0 -52.5 22t-25.5 49zM348 1120q0 14 8 25l154 360q18 41 63 41q31 0 55.5 -19.5t24.5 -47.5q0 -12 -6 -25l-137 -334q-29 -72 -84 -71q-27 0 -52.5 22 t-25.5 49z" />
<glyph unicode="&#x201e;" horiz-adv-x="888" d="M0 -203q0 12 6 25l137 334q12 27 37 47t53 20q27 0 49.5 -20.5t22.5 -46.5q0 -14 -8 -25l-154 -360q-18 -41 -63 -41q-31 0 -55.5 19t-24.5 48zM328 -203q0 12 6 25l137 334q10 27 35.5 46t54.5 19q27 0 49.5 -19.5t22.5 -45.5q0 -14 -8 -25l-154 -360q-18 -41 -63 -41 q-31 0 -55.5 19t-24.5 48z" />
<glyph unicode="&#x2020;" horiz-adv-x="1161" d="M0 1065q0 72 76 72h301v299q0 45 22.5 73.5t55.5 28.5q72 0 71 -102v-299h305q76 0 76 -78q0 -72 -76 -72h-305v-887q0 -100 -71 -100q-33 0 -55.5 27.5t-22.5 72.5v887h-301q-76 0 -76 78z" />
<glyph unicode="&#x2021;" horiz-adv-x="1161" d="M0 492q0 72 76 71h301v424h-301q-76 0 -76 78q0 74 76 74h301v299q0 45 22.5 72.5t55.5 27.5q72 0 71 -100v-299h305q76 0 76 -78q0 -74 -76 -74h-305v-424h305q76 0 76 -78q0 -72 -76 -71h-305v-322q0 -100 -71 -100q-33 0 -55.5 27.5t-22.5 72.5v322h-301q-76 0 -76 78 z" />
<glyph unicode="&#x2022;" horiz-adv-x="1191" d="M117 706.5q0 153.5 99 254t253 100.5t253 -100.5t99 -254t-99 -255t-253 -101.5t-253 101.5t-99 255z" />
<glyph unicode="&#x2026;" horiz-adv-x="1134" d="M0 102q0 43 29.5 73t72.5 30t73 -30t30 -73t-30 -72.5t-73 -29.5t-72.5 29.5t-29.5 72.5zM348 102q0 43 30 73t73 30t72.5 -30t29.5 -73t-29.5 -72.5t-72.5 -29.5t-73 29.5t-30 72.5zM676 102q0 43 29.5 73t72.5 30t73 -30t30 -73t-30 -72.5t-73 -29.5t-72.5 29.5 t-29.5 72.5z" />
<glyph unicode="&#x202f;" horiz-adv-x="364" />
<glyph unicode="&#x2030;" horiz-adv-x="2500" d="M0 1186q0 158 93 262t249 104q154 0 247 -110.5t93 -270t-93 -268t-247 -108.5t-248 115.5t-94 275.5zM139 1178q0 -104 53.5 -185.5t149.5 -81.5q98 0 153.5 77t55.5 183q0 104 -56.5 184.5t-152.5 80.5q-94 0 -148.5 -74.5t-54.5 -183.5zM365 23q0 18 10 49l557 1429 q25 61 78 62q61 0 61 -68q0 -20 -10 -51q-35 -100 -287 -742.5t-285 -701.5q-25 -43 -65 -43q-59 0 -59 66zM758 358q0 160 94 265.5t252 105.5q152 0 243 -113.5t91 -271.5q0 -160 -89 -265.5t-245 -105.5q-158 0 -252 111.5t-94 273.5zM897 352q0 -109 53.5 -186.5 t153.5 -77.5q96 0 150.5 76t54.5 178q0 104 -55.5 187t-149.5 83q-96 0 -151.5 -78t-55.5 -182zM1567 358q0 160 94 265.5t252 105.5q152 0 243 -113.5t91 -271.5q0 -160 -89.5 -265.5t-244.5 -105.5q-158 0 -252 111.5t-94 273.5zM1706 352.5q0 -104.5 55.5 -184.5 t151.5 -80t150.5 76t54.5 178q0 104 -55.5 187t-149.5 83q-96 0 -151.5 -77.5t-55.5 -182z" />
<glyph unicode="&#x2039;" horiz-adv-x="1392" d="M0 567q0 57 72 92l932 435q39 16 63 16q18 0 35 -6q37 -14 37 -55q0 -55 -70 -88l-844 -406l828 -401q74 -37 73 -95q0 -59 -69 -59q-33 0 -76 18l-909 453q-72 37 -72 96z" />
<glyph unicode="&#x203a;" horiz-adv-x="1392" d="M0 1055q0 63 72 63q23 0 49 -10l928 -455q90 -47 90 -96q0 -57 -107 -108l-911 -437q-25 -10 -45 -10q-74 0 -74 72q0 57 66 88l827 385l-827 422q-68 35 -68 86z" />
<glyph unicode="&#x205f;" horiz-adv-x="456" />
<glyph unicode="&#x20ac;" horiz-adv-x="1597" d="M6 604q0 72 76 72h96q-4 57 -4 88q0 47 2 72h-94q-76 0 -76 71.5t76 71.5h115q55 256 233 424t455 168q252 0 432 -168q39 -33 39 -74q0 -37 -21.5 -59.5t-52.5 -22.5q-39 0 -63 25q-129 129 -340 129q-201 0 -331 -118t-177 -304h712q80 0 80 -74q0 -70 -80 -69h-735 q-2 -20 -2 -58q0 -53 6 -102h525q80 0 79 -74q0 -70 -79 -70h-494q53 -176 181 -285.5t317 -109.5q197 0 336 139q23 23 51 23q74 0 73 -76q0 -47 -30 -76q-195 -170 -439 -170q-266 0 -439 156t-232 399h-119q-76 0 -76 72z" />
<glyph unicode="&#x2122;" horiz-adv-x="1445" d="M0 1509q0 35 37 35h379q39 0 39 -37t-39 -37h-152v-649q0 -51 -37 -51q-39 0 -39 51v649h-151q-37 0 -37 39zM373 813v12l102 670q8 63 63.5 63.5t71.5 -55.5l168 -590l176 590q18 55 72 56q55 0 64 -64l102 -670v-10q0 -35 -35 -35q-37 0 -43 41l-92 633l-203 -633 q-14 -45 -41 -45q-29 0 -43 45l-194 633l-92 -633q-6 -43 -43 -43q-33 0 -33 35z" />
<glyph unicode="&#x2126;" horiz-adv-x="1495" d="M6 932q0 258 166 446.5t459 188.5q152 0 274.5 -55.5t200.5 -146.5t119 -203.5t41 -233.5q0 -254 -167 -437.5t-468 -183.5q-295 0 -460 185.5t-165 439.5zM113 74q0 76 69 76h908q70 0 69 -76q0 -74 -69 -74h-908q-69 0 -69 74zM160 933.5q0 -196.5 125 -338.5t350 -142 q231 0 356 136t125 329q0 201 -130 351t-353 150q-221 0 -347 -144.5t-126 -341z" />
<glyph unicode="&#x2206;" horiz-adv-x="1423" d="M0 51q0 18 8 37l490 1339q33 94 116 95q90 0 117 -95l508 -1339q8 -18 8 -39q0 -49 -123 -49h-1030q-94 0 -94 51zM197 162h850l-433 1149z" />
<glyph unicode="&#xe000;" horiz-adv-x="1135" d="M0 1135h1135v-1135h-1135v1135z" />
<glyph horiz-adv-x="1214" d="M-6 608q0 164 54 305.5t171 235.5t277 94h8q162 0 277.5 -93t167.5 -232.5t52 -303.5q0 -166 -52 -307t-169.5 -236.5t-279.5 -95.5t-280 93.5t-172 234.5t-54 305zM156 612q0 -195 91 -337t253 -142q160 0 249 138.5t89 328.5q0 195 -89.5 338t-246.5 143 q-166 0 -256 -138t-90 -331z" />
<glyph horiz-adv-x="817" d="M-4 1065q0 66 76 86q305 86 313 86q49 0 66 -41q10 -20 10 -104v-1004q0 -39 -22.5 -63.5t-59.5 -24.5q-39 0 -61.5 24.5t-22.5 63.5v971l-201 -58q-20 -4 -26 -4q-31 0 -51.5 18.5t-20.5 49.5z" />
<glyph horiz-adv-x="1103" d="M-10 836q0 188 133 304.5t307 116.5q168 0 297 -108.5t129 -276.5q0 -49 -5 -80.5t-36 -95t-90 -131t-174 -173t-283 -236.5h535q76 0 76 -76q0 -80 -78 -80h-678q-113 0 -113 74q0 37 31 76q315 270 445 395t166 183t36 130q0 109 -80 175.5t-186 66.5 q-109 0 -186.5 -73t-77.5 -202q0 -35 -21.5 -66.5t-60.5 -31.5t-62.5 34t-23.5 75z" />
<glyph horiz-adv-x="1085" d="M-4 -8q0 39 20.5 60.5t49.5 21.5q53 0 75 -54q84 -195 269 -194q123 0 210 77t87 214q0 109 -62.5 194.5t-177.5 104.5q-25 4 -119 4q-94 2 -94 75.5t92 73.5q96 0 117 4q86 16 134 98.5t48 178.5q0 115 -65.5 184.5t-182.5 69.5q-88 0 -151.5 -59.5t-63.5 -145.5 q0 -102 -78 -102q-88 0 -88 108q0 135 114 243.5t278 108.5q182 0 293.5 -116.5t111.5 -286.5q0 -195 -170 -340q115 -72 173 -178.5t58 -222.5q0 -182 -126.5 -316.5t-335.5 -134.5q-117 0 -213.5 52.5t-151.5 131.5q-51 74 -51 146z" />
<glyph horiz-adv-x="1208" d="M-6 217q0 43 26 78l535 862q59 96 158 96q57 0 94 -39.5t37 -107.5v-830h98q76 0 76 -81q0 -72 -68 -72h-106v-293q0 -96 -78 -96q-80 0 -80 96v291h-584q-51 0 -79.5 27.5t-28.5 68.5zM186 276h500v805z" />
<glyph horiz-adv-x="1142" d="M6 -53q0 35 19.5 54t46.5 19q39 0 63 -34q49 -63 135 -103.5t170 -40.5q143 0 237.5 104.5t94.5 239.5q0 139 -89 242.5t-249 103.5q-57 0 -115.5 -17t-87.5 -17q-84 0 -84 75q0 18 105 574q14 82 117 82h438q35 0 55.5 -25.5t20.5 -62.5q0 -78 -76 -78h-422l-68 -395 q68 16 156 16q219 0 341 -141.5t122 -337.5q0 -207 -133 -361.5t-373 -154.5q-170 0 -297 85t-127 173z" />
<glyph horiz-adv-x="1142" d="M2 522q0 268 145.5 516t372.5 453q33 31 70 31t61.5 -21.5t24.5 -60.5q0 -27 -23 -49q-127 -119 -242.5 -267.5t-166.5 -253.5q92 109 280 109q170 0 291 -137t121 -346q0 -213 -131 -367t-340 -154q-217 0 -340 161t-123 386zM162 492q0 -145 85 -255t226 -110 q141 10 224 116.5t83 245.5q0 137 -83 237.5t-236 100.5q-145 0 -222 -99t-77 -236z" />
<glyph horiz-adv-x="1110" d="M2 1143q0 82 94 82h725q39 0 66.5 -27t27.5 -68q0 -25 -12 -55l-543 -1284q-37 -84 -98 -84q-72 0 -72 80q0 29 11 49l520 1223h-625q-94 0 -94 84z" />
<glyph horiz-adv-x="1110" d="M-12 444q0 125 72.5 232.5t183.5 159.5q-199 123 -199 348q0 160 118 268.5t283 108.5q168 0 280 -105.5t112 -271.5q0 -199 -199 -336q121 -57 191.5 -168t70.5 -242q0 -190 -131 -326.5t-321 -136.5q-205 0 -333 132t-128 337zM160 451q0 -133 79.5 -223.5t209.5 -90.5 q125 0 202.5 90t77.5 219q0 131 -81 221.5t-199 90.5q-125 0 -207 -91t-82 -216zM209 1173.5q0 -108.5 66.5 -185.5t173.5 -77q100 0 158.5 78t58.5 185q0 109 -65.5 172t-158 63t-163 -63.5t-70.5 -172z" />
<glyph horiz-adv-x="1175" d="M-6 735q0 209 127 359.5t356 150.5q217 0 347 -158.5t130 -402.5q0 -154 -43 -309.5t-171 -352t-330 -360.5q-27 -23 -64 -22q-31 0 -51.5 18t-20.5 47q0 45 39 80q139 121 258 272.5t154 247.5q-100 -90 -262 -90q-215 0 -342 155.5t-127 364.5zM156 725q0 -164 93 -260 t224 -96q141 0 233.5 90t92.5 262q0 145 -84 255.5t-244 110.5q-152 0 -233.5 -111.5t-81.5 -250.5z" />
<glyph horiz-adv-x="1388" d="M0 72q0 16 8 41l463 968q33 92 119 92.5t119 -92.5l479 -968q8 -18 8 -43q0 -70 -70 -70q-55 0 -73 49l-140 262h-645l-110 -233q-29 -78 -92 -78q-66 0 -66 72zM340 467h500l-252 506z" />
<glyph horiz-adv-x="1181" d="M0 100v949q0 98 84 98h375q160 0 267.5 -68.5t107.5 -210.5q0 -92 -60.5 -160.5t-163.5 -99.5q147 -4 237.5 -86t90.5 -203q0 -127 -103.5 -223t-275.5 -96h-440q-68 0 -90 16q-29 18 -29 84zM152 150h346q129 0 201.5 49t72.5 127q0 96 -90 141t-215 45h-315v-362z M152 662h245q279 0 279 178q0 68 -53.5 112.5t-176.5 44.5h-294v-335z" />
<glyph horiz-adv-x="1294" d="M10 580q0 268 175 435t454 167q252 0 432 -168q39 -33 39 -74q0 -37 -21.5 -59.5t-52.5 -22.5q-39 0 -63 25q-129 129 -340 129q-188 0 -319.5 -112t-131.5 -306q0 -205 129 -331t324 -126q197 0 336 139q23 23 51 23q74 0 74 -76q0 -47 -31 -76q-195 -170 -438 -170 q-272 0 -444.5 168.5t-172.5 434.5z" />
<glyph horiz-adv-x="1349" d="M0 84v965q0 98 119 98h405q221 0 375 -154.5t154 -425.5q0 -272 -165 -419.5t-405 -147.5h-397q-51 0 -68.5 16.5t-17.5 67.5zM152 150h321q182 0 300 102t118 315q0 217 -114.5 323.5t-274.5 106.5h-350v-847z" />
<glyph horiz-adv-x="1007" d="M0 92v963q0 92 84 92h623q76 0 75 -76q0 -74 -75 -74h-557v-319h458q76 0 76 -78q0 -72 -76 -72h-458v-378h573q88 0 88 -76q0 -74 -88 -74h-639q-53 0 -68.5 17.5t-15.5 74.5z" />
<glyph horiz-adv-x="927" d="M0 61v988q0 98 84 98h604q76 0 76 -76q0 -74 -76 -74h-536v-417h405q76 0 76 -78q0 -74 -76 -74h-405v-367q0 -61 -78 -61q-74 0 -74 61z" />
<glyph horiz-adv-x="1470" d="M6 551q0 256 165 438t429 182q254 0 436 -188q35 -35 35 -67.5t-21.5 -59.5t-58.5 -27q-35 0 -71 33q-160 145 -328 146q-182 0 -300 -131.5t-118 -329.5q0 -170 124 -291t302 -121q98 0 188.5 34t156 110.5t65.5 181.5q0 29 -9 31h-317q-90 0 -90 73q0 76 96 76h342 q80 0 105.5 -48t25.5 -134q0 -203 -156.5 -342.5t-414.5 -139.5q-252 0 -419 175.5t-167 398.5z" />
<glyph horiz-adv-x="1181" d="M0 74v1003q0 76 74 76q76 0 76 -76v-415h641v415q0 76 73 76q78 0 78 -76v-1003q0 -74 -78 -74q-74 0 -73 74v436h-641v-436q0 -74 -74 -74q-76 0 -76 74z" />
<glyph horiz-adv-x="391" d="M0 76v999q0 76 80 76t80 -76v-999q0 -76 -80 -76t-80 76z" />
<glyph horiz-adv-x="882" d="M0 133q0 78 70 78q16 0 85.5 -47t149.5 -47q88 0 137.5 50t49.5 138v770q0 76 75 76q78 0 78 -76v-770q0 -152 -95 -242t-247 -90q-164 0 -278 103q-25 22 -25 57z" />
<glyph horiz-adv-x="1052" d="M0 117v960q0 76 74 76q76 0 76 -76v-927h657q76 0 76 -74q0 -76 -76 -76h-707q-100 0 -100 117z" />
<glyph horiz-adv-x="1689" d="M0 72q0 16 2 24l203 924q25 154 131 154q98 0 143 -138l254 -760l262 760q47 133 148 133q106 0 127 -149l190 -928q0 -2 1 -8t1 -8q0 -33 -21.5 -53.5t-54.5 -20.5q-68 0 -81 82l-175 893l-317 -889q-31 -88 -84 -88t-84 88l-303 891l-188 -893q-12 -84 -82 -84 q-72 0 -72 70z" />
<glyph horiz-adv-x="1234" d="M0 78v1003q0 90 74 90q57 0 106 -73l676 -828v822q0 78 74 77q76 0 76 -77v-1002q0 -90 -74 -90q-59 0 -103 61l-679 824v-807q0 -78 -74 -78q-76 0 -76 78z" />
<glyph horiz-adv-x="1396" d="M0 571q0 98 37 198.5t106.5 189t188.5 143.5t266 55q254 0 423 -170t169 -422q0 -242 -165 -413.5t-427 -171.5q-268 0 -433 172.5t-165 418.5zM158 575q0 -188 124 -317t320 -129q188 0 308 124t120 306q0 186 -123 317.5t-309 131.5q-201 0 -320.5 -119t-119.5 -314z " />
<glyph horiz-adv-x="1097" d="M0 76v991q0 82 84 82h393q201 0 319.5 -112.5t118.5 -266.5q0 -162 -113.5 -280.5t-312.5 -118.5h-339v-295q0 -76 -74 -76q-76 0 -76 76zM150 520h331q133 0 208 69.5t75 164.5q0 100 -83 172.5t-232 72.5h-299v-479z" />
<glyph horiz-adv-x="1433" d="M0 571q0 98 37 198.5t106.5 189t188.5 143.5t266 55q254 0 423 -170t169 -422q0 -221 -137 -383l86 -94q23 -27 22.5 -55.5t-19 -50t-50.5 -21.5q-29 0 -48 19l-102 102q-143 -102 -344 -102q-268 0 -433 172.5t-165 418.5zM158 575q0 -188 124 -317t320 -129 q127 0 232 61l-86 82q-29 29 -29 60q0 37 24.5 62.5t57.5 25.5q29 0 53 -25l94 -96q82 115 82 260q0 186 -123 317.5t-309 131.5q-201 0 -320.5 -119t-119.5 -314z" />
<glyph horiz-adv-x="1101" d="M0 92v995q0 82 117 82h307q221 0 346 -92t125 -276q0 -236 -252 -330l219 -334q18 -23 19 -71q0 -68 -66 -68q-37 0 -70 41l-256 381h-339v-328q0 -92 -74 -92q-76 0 -76 92zM150 569h290q127 0 218.5 59.5t91.5 172.5q0 115 -92.5 167t-217.5 52h-290v-451z" />
<glyph horiz-adv-x="1085" d="M16 160q0 41 19.5 64.5t50.5 23.5q27 0 59 -23q139 -92 283 -92q98 0 174 42t76 132q0 68 -63.5 110t-172.5 81q-72 27 -97.5 37t-88.5 36.5t-91 48t-66 55.5t-53 73.5t-15 87.5q0 164 117.5 248.5t293.5 84.5q182 0 318 -73q39 -20 39 -72q0 -35 -21.5 -55.5 t-52.5 -20.5q-25 0 -45 13q-92 53 -246 53q-104 0 -175 -38t-71 -122q0 -20 8.5 -37.5t29 -34t37 -29t54 -28.5t57 -24.5t67.5 -27t65 -24.5q340 -133 340 -327q0 -174 -125 -259.5t-299 -85.5q-188 0 -379 121q-27 19 -27 62z" />
<glyph horiz-adv-x="1087" d="M0 1071q0 76 82 76h756q78 0 77 -76q0 -74 -77 -74h-303v-911q0 -86 -74 -86q-78 0 -78 86v911h-301q-82 0 -82 74z" />
<glyph horiz-adv-x="1208" d="M0 584v479q0 88 84 88q78 0 78 -88v-463q0 -248 96 -354.5t252 -106.5t241 103.5t85 357.5v463q0 88 79 88q84 0 84 -88v-479q0 -606 -507 -607q-223 0 -357.5 144t-134.5 463z" />
<glyph horiz-adv-x="1220" d="M0 1083q0 74 78 74q57 0 80 -61l340 -842l336 842q23 59 71 59q33 0 61.5 -25.5t28.5 -58.5q0 -12 -6 -24l-375 -920q-51 -127 -116 -127q-59 0 -105 109l-387 938q-6 18 -6 36z" />
<glyph horiz-adv-x="1736" d="M0 1096q0 35 22.5 55t55.5 20q68 0 80 -75l211 -891l286 889q27 78 109 77q80 0 106 -77l277 -887l205 885q12 84 84 84q33 0 56.5 -23t23.5 -57q0 -12 -3 -19l-237 -973q-10 -45 -46 -74.5t-83 -29.5q-43 0 -78 23.5t-47 70.5l-262 838l-260 -805q-41 -131 -135 -131 q-45 0 -80 33.5t-49 87.5l-234 960q-2 7 -2 19z" />
<glyph horiz-adv-x="1110" d="M0 57q0 33 25 70l311 504l-258 420q-18 27 -19 51q0 31 20.5 50t51.5 19q41 0 68 -36l231 -369l207 367q25 37 63 36q29 0 51.5 -21.5t22.5 -51.5q0 -25 -16 -47l-246 -400l315 -518q29 -45 29 -76q0 -57 -59 -57q-45 0 -78 45l-297 467l-285 -465q-31 -47 -78 -47 q-59 0 -59 59z" />
<glyph horiz-adv-x="1163" d="M0 1094q0 72 68 71q39 0 63 -43l358 -598l351 594q29 47 73 47q68 0 68 -65q0 -23 -12 -43l-412 -699v-270q0 -88 -76 -88q-78 0 -78 88v270l-389 682q-14 27 -14 54z" />
<glyph horiz-adv-x="1181" d="M0 86q0 45 23 80l694 833h-611q-78 0 -77 74q0 76 77 76h721q102 0 103 -66q0 -37 -41 -100l-694 -833h682q80 0 79 -72q0 -78 -79 -78h-805q-72 0 -72 86z" />
<glyph horiz-adv-x="1388" d="M0 72q0 16 8 41l463 968q33 92 119 92.5t119 -92.5l479 -968q8 -18 8 -43q0 -70 -70 -70q-55 0 -73 49l-140 262h-645l-110 -233q-29 -78 -92 -78q-66 0 -66 72zM340 467h500l-252 506z" />
<glyph horiz-adv-x="1181" d="M0 100v949q0 98 84 98h375q160 0 267.5 -68.5t107.5 -210.5q0 -92 -60.5 -160.5t-163.5 -99.5q147 -4 237.5 -86t90.5 -203q0 -127 -103.5 -223t-275.5 -96h-440q-68 0 -90 16q-29 18 -29 84zM152 150h346q129 0 201.5 49t72.5 127q0 96 -90 141t-215 45h-315v-362z M152 662h245q279 0 279 178q0 68 -53.5 112.5t-176.5 44.5h-294v-335z" />
<glyph horiz-adv-x="1007" d="M0 76v968q0 98 84 99h645q35 0 57.5 -22.5t22.5 -55.5q0 -72 -80 -72h-577v-917q0 -76 -78 -76q-74 0 -74 76z" />
<glyph horiz-adv-x="1423" d="M0 51q0 18 8 37l449 989q33 94 116 94q90 0 117 -94l467 -989q8 -18 8 -39q0 -49 -123 -49h-948q-94 0 -94 51zM225 150h713l-367 802z" />
<glyph horiz-adv-x="1007" d="M0 92v963q0 92 84 92h623q76 0 75 -76q0 -74 -75 -74h-557v-319h458q76 0 76 -78q0 -72 -76 -72h-458v-378h573q88 0 88 -76q0 -74 -88 -74h-639q-53 0 -68.5 17.5t-15.5 74.5z" />
<glyph horiz-adv-x="1181" d="M0 86q0 45 23 80l694 833h-611q-78 0 -77 74q0 76 77 76h721q102 0 103 -66q0 -37 -41 -100l-694 -833h682q80 0 79 -72q0 -78 -79 -78h-805q-72 0 -72 86z" />
<glyph horiz-adv-x="1167" d="M0 74v1013q0 76 74 76q76 0 76 -76v-425h641v425q0 76 73 76q78 0 78 -76v-1013q0 -74 -78 -74q-74 0 -73 74v436h-641v-436q0 -74 -74 -74q-76 0 -76 74z" />
<glyph horiz-adv-x="1417" d="M0 571q0 98 37 198.5t106.5 189t188.5 143.5t266 55q254 0 423 -170t169 -422q0 -242 -165 -413.5t-427 -171.5q-268 0 -433 172.5t-165 418.5zM158 575q0 -188 124 -317t320 -129q188 0 308 124t120 306q0 186 -123 317.5t-309 131.5q-201 0 -320.5 -119t-119.5 -314z M233 577.5q0 75.5 76 75.5h568q76 0 75 -78q0 -74 -75 -73h-568q-76 0 -76 75.5z" />
<glyph horiz-adv-x="391" d="M0 76v999q0 76 74 76q76 0 76 -76v-999q0 -76 -76 -76q-74 0 -74 76z" />
<glyph horiz-adv-x="1214" d="M0 66v1030q0 63 74 63q78 0 78 -63v-607l714 648q23 18 47 18q33 0 58.5 -25.5t25.5 -56.5q0 -29 -20 -47l-414 -354l449 -539q25 -23 24 -59q0 -33 -27.5 -54.5t-47.5 -21.5q-39 0 -70 35l-445 532l-294 -266v-233q0 -66 -74 -66q-78 0 -78 66z" />
<glyph horiz-adv-x="1409" d="M0 72q0 16 8 41l463 968q33 92 119 92.5t119 -92.5l479 -968q8 -18 8 -43q0 -31 -21.5 -50.5t-56.5 -19.5q-55 0 -74 49l-456 924l-430 -895q-29 -78 -92 -78q-66 0 -66 72z" />
<glyph horiz-adv-x="1689" d="M0 72q0 16 2 24l203 924q25 154 131 154q98 0 143 -138l254 -760l262 760q47 133 148 133q106 0 127 -149l190 -928q0 -2 1 -8t1 -8q0 -33 -21.5 -53.5t-54.5 -20.5q-68 0 -81 82l-175 893l-317 -889q-31 -88 -84 -88t-84 88l-303 891l-188 -893q-12 -84 -82 -84 q-72 0 -72 70z" />
<glyph horiz-adv-x="1234" d="M0 78v1003q0 90 74 90q57 0 106 -73l676 -828v822q0 78 74 77q76 0 76 -77v-1002q0 -90 -74 -90q-59 0 -103 61l-679 824v-807q0 -78 -74 -78q-76 0 -76 78z" />
<glyph horiz-adv-x="1329" d="M-6 80q0 76 88 76h946q86 0 86 -78q0 -74 -86 -74h-946q-88 0 -88 76zM23 1073q0 76 75 76h912q76 0 75 -76q0 -74 -75 -74h-912q-75 0 -75 74zM168 586q0 74 74 73h606q76 0 76 -79q0 -74 -76 -74h-606q-74 0 -74 80z" />
<glyph horiz-adv-x="1396" d="M0 571q0 98 37 198.5t106.5 189t188.5 143.5t266 55q254 0 423 -170t169 -422q0 -242 -165 -413.5t-427 -171.5q-268 0 -433 172.5t-165 418.5zM158 575q0 -188 124 -317t320 -129q188 0 308 124t120 306q0 186 -123 317.5t-309 131.5q-201 0 -320.5 -119t-119.5 -314z " />
<glyph horiz-adv-x="1169" d="M0 76v985q0 78 74 78h788q31 0 54.5 -23.5t23.5 -54.5v-985q0 -76 -74 -76q-76 0 -75 76v909h-641v-909q0 -76 -78 -76q-72 0 -72 76z" />
<glyph horiz-adv-x="1097" d="M0 76v991q0 82 84 82h414q201 0 319.5 -112.5t118.5 -266.5q0 -162 -113.5 -280.5t-312.5 -118.5h-360v-295q0 -76 -74 -76q-76 0 -76 76zM150 520h352q133 0 207.5 69.5t74.5 164.5q0 100 -83 172.5t-232 72.5h-319v-479z" />
<glyph horiz-adv-x="1163" d="M0 86q0 45 23 80l370 387q14 25 15 41q0 20 -19 47l-323 340q-39 57 -39 100q0 68 104 68h741q76 0 76 -78q0 -74 -76 -74h-612l326 -352q20 -29 20 -55q0 -20 -14 -41l-385 -399h692q76 0 76 -78q0 -72 -76 -72h-827q-72 0 -72 86z" />
<glyph horiz-adv-x="1087" d="M0 1071q0 76 82 76h756q78 0 77 -76q0 -74 -77 -74h-303v-911q0 -86 -74 -86q-78 0 -78 86v911h-301q-82 0 -82 74z" />
<glyph horiz-adv-x="1163" d="M0 1094q0 72 68 71q39 0 63 -43l358 -598l351 594q29 47 73 47q68 0 68 -65q0 -23 -12 -43l-412 -699v-270q0 -88 -76 -88q-78 0 -78 88v270l-389 682q-14 27 -14 54z" />
<glyph horiz-adv-x="1449" d="M0 592q0 170 137 275.5t371 105.5v110q0 76 75.5 76t75.5 -76q0 -4 -4 -110q233 0 370.5 -106.5t137.5 -276.5q0 -168 -137 -270.5t-369 -102.5v-139q0 -78 -73 -78q-76 0 -76 78v139q-246 0 -377 101.5t-131 273.5zM145 592q0 -109 96.5 -171.5t266.5 -62.5v473 q-180 0 -271.5 -64t-91.5 -175zM657 358q360 0 361 232q0 113 -90 177t-271 64v-473z" />
<glyph horiz-adv-x="997" d="M0 57q0 33 25 70l311 504l-258 420q-18 27 -19 51q0 31 20.5 50t51.5 19q41 0 68 -36l231 -369l207 367q25 37 63 36q29 0 51.5 -21.5t22.5 -51.5q0 -25 -16 -47l-246 -400l319 -516q29 -45 29 -76q0 -59 -63 -59q-45 0 -78 45l-297 467l-285 -465q-31 -47 -78 -47 q-59 0 -59 59z" />
<glyph horiz-adv-x="1423" d="M0 858v199q0 74 78 73q72 0 72 -73v-172q0 -227 79.5 -352t276.5 -125v696q0 76 74 76q76 0 75 -76v-696q209 0 282 114.5t73 362.5v172q0 76 75 76q78 0 78 -76v-199q0 -594 -508 -594v-190q0 -74 -75 -74q-74 0 -74 74v190q-506 12 -506 594z" />
<glyph horiz-adv-x="1300" d="M61 715q0 162 133.5 302t362.5 140q213 0 361.5 -124t148.5 -324q0 -190 -144.5 -316.5t-365.5 -126.5q-215 0 -355.5 128t-140.5 321zM92 74q0 76 70 76h811q70 0 69 -76q0 -74 -69 -74h-811q-70 0 -70 74zM219 719q0 -135 99.5 -219t242.5 -84q147 0 246.5 77.5 t99.5 208.5q0 135 -101 220.5t-249 85.5q-145 0 -241.5 -80t-96.5 -209z" />
<glyph horiz-adv-x="1388" d="M0 72q0 16 8 41l463 968q33 92 119 92.5t119 -92.5l479 -968q8 -18 8 -43q0 -70 -70 -70q-55 0 -73 49l-140 262h-645l-110 -233q-29 -78 -92 -78q-66 0 -66 72zM340 467h500l-252 506z" />
<glyph horiz-adv-x="1007" d="M0 92v963q0 92 84 92h623q76 0 75 -76q0 -74 -75 -74h-557v-319h458q76 0 76 -78q0 -72 -76 -72h-458v-378h573q88 0 88 -76q0 -74 -88 -74h-639q-53 0 -68.5 17.5t-15.5 74.5z" />
<glyph horiz-adv-x="391" d="M0 76v999q0 76 74 76q76 0 76 -76v-999q0 -76 -76 -76q-74 0 -74 76z" />
<glyph horiz-adv-x="1153" d="M0 74v1013q0 76 74 76q76 0 76 -76v-425h641v425q0 76 73 76q78 0 78 -76v-1013q0 -74 -78 -74q-74 0 -73 74v436h-641v-436q0 -74 -74 -74q-76 0 -76 74z" />
<glyph horiz-adv-x="1396" d="M0 571q0 98 37 198.5t106.5 189t188.5 143.5t266 55q254 0 423 -170t169 -422q0 -242 -165 -413.5t-427 -171.5q-268 0 -433 172.5t-165 418.5zM158 575q0 -188 124 -317t320 -129q188 0 308 124t120 306q0 186 -123 317.5t-309 131.5q-201 0 -320.5 -119t-119.5 -314z " />
<glyph horiz-adv-x="1163" d="M0 1094q0 72 68 71q39 0 63 -43l358 -598l351 594q29 47 73 47q68 0 68 -65q0 -23 -12 -43l-412 -699v-270q0 -88 -76 -88q-78 0 -78 88v270l-389 682q-14 27 -14 54z" />
<glyph horiz-adv-x="1300" d="M61 715q0 162 133.5 302t362.5 140q213 0 361.5 -124t148.5 -324q0 -190 -144.5 -316.5t-365.5 -126.5q-215 0 -355.5 128t-140.5 321zM92 74q0 76 70 76h811q70 0 69 -76q0 -74 -69 -74h-811q-70 0 -70 74zM219 719q0 -135 99.5 -219t242.5 -84q147 0 246.5 77.5 t99.5 208.5q0 135 -101 220.5t-249 85.5q-145 0 -241.5 -80t-96.5 -209z" />
<glyph horiz-adv-x="391" d="M0 76v999q0 76 74 76q76 0 76 -76v-999q0 -76 -76 -76q-74 0 -74 76z" />
<glyph horiz-adv-x="1163" d="M0 1094q0 72 68 71q39 0 63 -43l358 -598l351 594q29 47 73 47q68 0 68 -65q0 -23 -12 -43l-412 -699v-270q0 -88 -76 -88q-78 0 -78 88v270l-389 682q-14 27 -14 54z" />
<glyph horiz-adv-x="1163" d="M0 86q0 45 23 80l370 387q14 25 15 41q0 20 -19 47l-323 340q-39 57 -39 100q0 68 104 68h741q76 0 76 -78q0 -74 -76 -74h-612l326 -352q20 -29 20 -55q0 -20 -14 -41l-385 -399h692q76 0 76 -78q0 -72 -76 -72h-827q-72 0 -72 86z" />
<glyph horiz-adv-x="391" d="M0 76v999q0 76 74 76q76 0 76 -76v-999q0 -76 -76 -76q-74 0 -74 76z" />
<glyph horiz-adv-x="1163" d="M0 1094q0 72 68 71q39 0 63 -43l358 -598l351 594q29 47 73 47q68 0 68 -65q0 -23 -12 -43l-412 -699v-270q0 -88 -76 -88q-78 0 -78 88v270l-389 682q-14 27 -14 54z" />
<glyph d="M104 768q0 133 28 266t83 258t157.5 202t235.5 77h8q133 0 234.5 -76t156 -200t81 -256t26.5 -267q0 -131 -27.5 -263t-84 -256t-158 -201t-232.5 -77q-137 0 -240.5 74t-158.5 196t-82 254t-27 269zM274 764q0 -100 19.5 -204.5t57.5 -203t105.5 -161t155.5 -62.5 t156 65.5t104.5 166t54 202t17.5 193.5q0 106 -17.5 213.5t-54 208t-103.5 164t-155 63.5q-94 0 -164.5 -66.5t-106.5 -171t-52.5 -207t-16.5 -200.5z" />
<glyph d="M197 71.5q0 67.5 75 67.5h330v1202l-201 -57q-20 -4 -26 -4q-31 0 -51.5 18.5t-20.5 49.5q0 66 76 86q305 86 313 86q49 0 66 -41q10 -20 10 -105v-1235h301q80 0 80 -69q0 -66 -80 -66h-797q-75 0 -75 67.5z" />
<glyph d="M174 1143q0 188 133 305t307 117q168 0 297 -108.5t129 -276.5q0 -197 -145 -389l-483 -635h575q76 0 76 -76q0 -80 -78 -80h-678q-113 0 -112 74q0 37 30 76l557 757q90 123 90 258q0 109 -79.5 175.5t-186.5 66.5q-109 0 -186.5 -72.5t-77.5 -201.5q0 -35 -21.5 -67 t-60.5 -32t-62.5 34t-23.5 75z" />
<glyph d="M180 305q0 39 20.5 60.5t49.5 21.5q53 0 76 -53q84 -195 268 -195q123 0 210 77t87 214q0 109 -62.5 195t-177.5 104q-25 4 -119 4q-94 2 -94 76t92 74q96 0 117 4q86 16 134 98t48 178q0 115 -65.5 184.5t-181.5 69.5q-88 0 -151.5 -59.5t-63.5 -145.5q0 -102 -78 -102 q-88 0 -88 109q0 135 113.5 243.5t277.5 108.5q182 0 293.5 -117t111.5 -287q0 -195 -170 -340q115 -72 173.5 -178t58.5 -223q0 -182 -127 -316.5t-336 -134.5q-117 0 -213 52.5t-152 132.5q-51 73 -51 145z" />
<glyph d="M96 483q0 43 27 78l534 862q59 96 158 97q57 0 94 -40t37 -108v-829h98q76 0 76 -82q0 -72 -67 -72h-107v-293q0 -96 -78 -96q-80 0 -80 96v291h-583q-51 0 -80 27.5t-29 68.5zM289 543h499v805z" />
<glyph d="M129 233q0 35 19.5 54.5t46.5 19.5q39 0 63 -35q49 -63 135 -103t170 -40q143 0 237.5 104.5t94.5 239.5q0 139 -89 242.5t-249 103.5q-57 0 -115.5 -17.5t-87.5 -17.5q-84 0 -84 76q0 18 105 574q14 82 117 82h438q35 0 55.5 -26t20.5 -63q0 -78 -76 -77h-422l-68 -396 q68 16 156 17q219 0 341 -141.5t122 -337.5q0 -207 -133 -362t-373 -155q-170 0 -297 85t-127 173z" />
<glyph d="M145 522q0 268 145.5 516t373.5 453q33 31 69.5 31t61 -21.5t24.5 -60.5q0 -27 -22 -49q-127 -119 -243 -267.5t-167 -253.5q92 109 281 109q170 0 290.5 -137t120.5 -346q0 -213 -131 -367t-340 -154q-217 0 -340 161t-123 386zM305 492q0 -145 85 -255t226 -110 q141 10 224.5 116.5t83.5 245.5q0 137 -83 237.5t-237 100.5q-145 0 -222 -99t-77 -236z" />
<glyph d="M145 1436q0 82 95 82h725q39 0 66.5 -27t27.5 -68q0 -25 -12 -55l-543 -1284q-37 -84 -98 -84q-72 0 -72 80q0 29 10 49l520 1223h-624q-95 0 -95 84z" />
<glyph d="M152 444q0 125 72.5 232.5t183.5 159.5q-199 123 -199 348q0 160 117.5 268.5t283.5 108.5q168 0 279.5 -105.5t111.5 -271.5q0 -199 -198 -336q121 -57 191.5 -168t70.5 -242q0 -190 -131 -326.5t-322 -136.5q-205 0 -332.5 132t-127.5 337zM324 451q0 -133 79.5 -223.5 t208.5 -90.5q125 0 203 90t78 219q0 131 -81 221.5t-200 90.5q-125 0 -206.5 -91t-81.5 -216zM373 1173.5q0 -108.5 66.5 -185.5t172.5 -77q100 0 158.5 78t58.5 185q0 109 -65.5 172t-157.5 63t-162.5 -63.5t-70.5 -172z" />
<glyph d="M117 1059q0 209 127 359.5t356 150.5q217 0 347 -159t130 -402q0 -154 -43 -309.5t-171 -352t-331 -360.5q-27 -23 -63 -23q-31 0 -51.5 18.5t-20.5 47.5q0 45 39 80q139 121 258 272t154 248q-100 -90 -262 -90q-215 0 -342 155.5t-127 364.5zM279 1049 q0 -164 93 -260.5t224 -96.5q141 0 233.5 90t92.5 262q0 145 -84 256t-244 111q-152 0 -233.5 -111.5t-81.5 -250.5z" />
<glyph horiz-adv-x="1288" d="M106 608q0 258 133.5 446.5t368.5 188.5h8q162 0 278 -93t168 -232.5t52 -303.5q0 -166 -52 -307t-170 -236.5t-279.5 -95.5t-279.5 93.5t-172.5 234.5t-54.5 305zM268 612q0 -195 91.5 -337t253 -142t249.5 138.5t88 328.5q0 195 -89 338t-247 143q-166 0 -256 -138 t-90 -331z" />
<glyph d="M197 71.5q0 67.5 75 67.5h330v920l-201 -58q-20 -4 -26 -4q-31 0 -51.5 18.5t-20.5 49.5q0 66 76 86q305 86 313 86q49 0 66 -41q10 -20 10 -104v-953h301q80 0 80 -69q0 -66 -80 -66h-797q-75 0 -75 67.5z" />
<glyph d="M174 836q0 188 133 304.5t307 116.5q168 0 297 -108.5t129 -276.5q0 -49 -5 -80.5t-35.5 -95t-90 -131t-174 -173t-282.5 -236.5h534q76 0 76 -76q0 -80 -78 -80h-678q-113 0 -112 74q0 37 30 76q315 270 445.5 395t166 183t35.5 130q0 109 -79.5 175.5t-186.5 66.5 q-109 0 -186.5 -73t-77.5 -202q0 -35 -21.5 -66.5t-60.5 -31.5t-62.5 34t-23.5 75z" />
<glyph d="M180 -8q0 39 20.5 60.5t49.5 21.5q53 0 76 -54q84 -195 268 -194q123 0 210 77t87 214q0 109 -62.5 194.5t-177.5 104.5q-25 4 -119 4q-94 2 -94 75.5t92 73.5q96 0 117 4q86 16 134 98.5t48 178.5q0 115 -65.5 184.5t-181.5 69.5q-88 0 -151.5 -59.5t-63.5 -145.5 q0 -102 -78 -102q-88 0 -88 108q0 135 113.5 243.5t277.5 108.5q182 0 293.5 -116.5t111.5 -286.5q0 -195 -170 -340q115 -72 173.5 -178.5t58.5 -222.5q0 -182 -127 -316.5t-336 -134.5q-117 0 -213 52.5t-152 131.5q-51 74 -51 146z" />
<glyph d="M96 217q0 43 27 78l534 862q59 96 158 96q57 0 94 -39.5t37 -107.5v-830h98q76 0 76 -81q0 -72 -67 -72h-107v-293q0 -96 -78 -96q-80 0 -80 96v291h-583q-51 0 -80 27.5t-29 68.5zM289 276h499v805z" />
<glyph d="M129 -53q0 35 19.5 54t46.5 19q39 0 63 -34q49 -63 135 -103.5t170 -40.5q143 0 237.5 104.5t94.5 239.5q0 139 -89 242.5t-249 103.5q-57 0 -115.5 -17t-87.5 -17q-84 0 -84 75q0 18 105 574q14 82 117 82h438q35 0 55.5 -25.5t20.5 -62.5q0 -78 -76 -78h-422l-68 -395 q68 16 156 16q219 0 341 -141.5t122 -337.5q0 -207 -133 -361.5t-373 -154.5q-170 0 -297 85t-127 173z" />
<glyph d="M145 522q0 268 145.5 516t373.5 453q33 31 69.5 31t61 -21.5t24.5 -60.5q0 -27 -22 -49q-127 -119 -243 -267.5t-167 -253.5q92 109 281 109q170 0 290.5 -137t120.5 -346q0 -213 -131 -367t-340 -154q-217 0 -340 161t-123 386zM305 492q0 -145 85 -255t226 -110 q141 10 224.5 116.5t83.5 245.5q0 137 -83 237.5t-237 100.5q-145 0 -222 -99t-77 -236z" />
<glyph d="M145 1143q0 82 95 82h725q39 0 66.5 -27t27.5 -68q0 -25 -12 -55l-543 -1284q-37 -84 -98 -84q-72 0 -72 80q0 29 10 49l520 1223h-624q-95 0 -95 84z" />
<glyph d="M152 444q0 125 72.5 232.5t183.5 159.5q-199 123 -199 348q0 160 117.5 268.5t283.5 108.5q168 0 279.5 -105.5t111.5 -271.5q0 -199 -198 -336q121 -57 191.5 -168t70.5 -242q0 -190 -131 -326.5t-322 -136.5q-205 0 -332.5 132t-127.5 337zM324 451q0 -133 79.5 -223.5 t208.5 -90.5q125 0 203 90t78 219q0 131 -81 221.5t-200 90.5q-125 0 -206.5 -91t-81.5 -216zM373 1173.5q0 -108.5 66.5 -185.5t172.5 -77q100 0 158.5 78t58.5 185q0 109 -65.5 172t-157.5 63t-162.5 -63.5t-70.5 -172z" />
<glyph d="M117 735q0 209 127 359.5t356 150.5q217 0 347 -158.5t130 -402.5q0 -154 -43 -309.5t-171 -352t-331 -360.5q-27 -23 -63 -22q-31 0 -51.5 18t-20.5 47q0 45 39 80q139 121 258 272.5t154 247.5q-100 -90 -262 -90q-215 0 -342 155.5t-127 364.5zM279 725 q0 -164 93 -260t224 -96q141 0 233.5 90t92.5 262q0 145 -84 255.5t-244 110.5q-152 0 -233.5 -111.5t-81.5 -250.5z" />
<glyph horiz-adv-x="1214" d="M0 66v1030q0 63 74 63q78 0 78 -63v-607l714 648q23 18 47 18q33 0 58.5 -25.5t25.5 -56.5q0 -29 -20 -47l-414 -354l449 -539q25 -23 24 -59q0 -33 -27.5 -54.5t-47.5 -21.5q-39 0 -70 35l-445 532l-294 -266v-233q0 -66 -74 -66q-78 0 -78 66z" />
</font>
</defs>
</svg>
