<?xml version="1.0" standalone="no"?>
<!DOCTYPE svg PUBLIC "-//W3C//DTD SVG 1.1//EN" "http://www.w3.org/Graphics/SVG/1.1/DTD/svg11.dtd" >
<svg xmlns="http://www.w3.org/2000/svg">
<metadata>
This is a custom SVG webfont generated by Font Squirrel.
Copyright   : Copyright c 2004 by Magenta 2008 by George Triantafyllakos Released under the SIL Open Font License OFL
Designer    : MagentaGeorge Triantafyllakos
Foundry     : MagentaGeorge Triantafyllakos
Foundry URL : httpwwwmagentagr
</metadata>
<defs>
<font id="BPreplayBoldItalic" horiz-adv-x="1280" >
<font-face units-per-em="2048" ascent="1638" descent="-410" />
<missing-glyph horiz-adv-x="579" />
<glyph unicode=" "  horiz-adv-x="579" />
<glyph unicode="&#x09;" horiz-adv-x="579" />
<glyph unicode="&#xa0;" horiz-adv-x="579" />
<glyph unicode="!" horiz-adv-x="425" d="M-66 164q8 88 65.5 144.5t135.5 56.5q74 0 120 -47.5t46 -116.5q-8 -90 -65.5 -145.5t-137.5 -55.5q-70 0 -117 47t-47 117zM8 635q0 20 80 778q18 170 174 170q141 0 141 -135q0 -23 -79 -780q-18 -160 -177 -160q-139 0 -139 127z" />
<glyph unicode="&#x22;" horiz-adv-x="833" d="M43 1118q0 4 4 43q12 109 27 254q18 170 178 170q139 0 139 -135q0 -23 -29 -303q-18 -162 -176 -162q-143 0 -143 133zM440 1118q0 4 4 45q12 109 27 252q18 170 178 170q145 0 146 -137q0 -23 -29 -301q-18 -162 -182 -162q-144 0 -144 133z" />
<glyph unicode="#" horiz-adv-x="1357" d="M10 539q8 88 64.5 131t122.5 43h65q14 37 35 112h-33q-145 0 -145 125q0 84 48 130t128 46h70q8 41 73 306q39 150 164 149q59 0 100 -41t41 -98l-73 -316h69l76 308q37 150 166 149q57 0 95 -39t38 -98l-70 -320h25q61 0 104.5 -32.5t43.5 -98.5q-18 -170 -189 -170h-53 q-16 -39 -33 -112h27q141 0 141 -127q0 -78 -53 -129t-127 -51h-64l-61 -240q-43 -166 -184 -166q-123 0 -123 115q0 33 6 45l61 246h-73l-60 -238q-43 -168 -184 -168q-123 0 -123 113q0 4 1 13t1 13q0 8 63 267h-22q-158 0 -158 133zM565 713h74l31 112h-74z" />
<glyph unicode="$" horiz-adv-x="1114" d="M-43 229q8 94 51 136.5t125 42.5q61 0 119 -35q59 -41 129 -54l41 388q-78 39 -131 71.5t-110.5 83.5t-86 118t-28.5 146q0 188 136 330.5t316 175.5l6 54q8 76 26.5 102.5t86.5 26.5q49 0 66.5 -16.5t17.5 -55.5q0 -12 -3 -38t-3 -36l-4 -43q131 -25 231 -106 q78 -61 78 -140q0 -74 -55.5 -133t-126.5 -59q-66 0 -123 51l-41 29l-31 -279q190 -98 282.5 -191t92.5 -243q0 -215 -137.5 -368.5t-341.5 -196.5l-9 -86q-6 -70 -25.5 -95.5t-84.5 -25.5q-51 0 -68.5 16.5t-17.5 55.5q0 14 4 63l6 59q-174 16 -309 111q-78 53 -78 141z M412 1169q0 -49 49 -88l22 205q-63 -25 -71 -104v-13zM575 350q80 47 93 142q0 70 -64 114z" />
<glyph unicode="%" horiz-adv-x="1941" d="M84 1112q0 195 130 332t312 137q164 0 258.5 -108.5t94.5 -268.5q0 -197 -129 -338t-314 -141q-162 0 -257 112.5t-95 274.5zM391 1126q0 -49 18.5 -82.5t55.5 -33.5q57 0 85 54t28 114q0 49 -21.5 82.5t-60.5 33.5q-53 0 -79 -55.5t-26 -112.5zM487 104q0 51 21 84 l629 1272q55 113 166 113q59 0 96 -38t37 -95q-4 -55 -29 -101l-645 -1282q-10 -29 -52 -57.5t-98 -28.5q-53 0 -89 37t-36 96zM1053 377q0 201 129 340t315 139q162 0 254 -108.5t92 -268.5q0 -195 -123 -337t-311 -142q-168 0 -262 106.5t-94 270.5zM1358 399 q0 -49 20.5 -81.5t59.5 -32.5q55 0 80.5 54t25.5 110q0 49 -19.5 83.5t-56.5 34.5q-45 0 -74.5 -46t-35.5 -122z" />
<glyph unicode="&#x26;" horiz-adv-x="1556" d="M6 408q0 303 328 542q-63 102 -64 209q0 176 123 299t291 123q131 0 222 -82t91 -235q0 -193 -190 -371l176 -227l51 75q78 115 180 115q63 0 101.5 -37t38.5 -96q-6 -76 -58 -152l-125 -159l107 -140q29 -35 29 -84q-8 -82 -59.5 -135t-117.5 -53q-70 0 -102 33l-96 114 q-190 -186 -428 -186q-233 0 -365.5 124t-132.5 323zM326 453q0 -78 62.5 -129.5t148.5 -51.5q119 0 225 115l-254 318q-172 -129 -182 -252zM573 1214q0 -70 45 -137q82 82 89 160q0 31 -16.5 47t-41.5 16q-37 0 -56.5 -25.5t-19.5 -60.5z" />
<glyph unicode="'" horiz-adv-x="522" d="M37 1112q4 41 14 68l144 280q63 125 180 125q61 0 104 -43t43 -106q0 -53 -24 -93l-144 -268q-59 -102 -168 -102q-61 0 -105 40t-44 99z" />
<glyph unicode="(" horiz-adv-x="591" d="M-6 569q0 557 373 942q66 49 125 50q57 0 95 -41t38 -109q-6 -61 -56 -111q-266 -283 -266 -698q0 -307 150 -485q25 -39 24 -107q-6 -66 -53 -106.5t-111 -40.5q-72 0 -114 51q-205 229 -205 655z" />
<glyph unicode=")" horiz-adv-x="591" d="M-78 10q8 57 45 107q133 123 206 311t73 395q0 283 -142 477q-35 47 -34 111q6 61 57 105.5t113 44.5q57 0 100 -41q219 -266 219 -650q0 -266 -94 -525t-283 -431q-53 -51 -125 -51q-59 0 -97 38.5t-38 108.5z" />
<glyph unicode="*" d="M305 963q0 66 72 133l47 24l-45 33q-43 41 -43 98q6 68 53 114t109 46q10 0 29.5 -4t21.5 -4l49 -33v10q0 66 45 119t115 53q47 0 86 -36.5t39 -120.5v-25l22 14q37 25 86 25t88 -39t39 -92q-6 -86 -86 -143l-31 -15l19 -8q70 -41 70 -119q-6 -66 -53.5 -111.5 t-106.5 -45.5q-25 0 -99 32l-2 -22q-8 -72 -55 -113t-106 -41q-55 0 -93 36t-40 101l4 41q-72 -37 -103 -36q-53 0 -92 37t-39 92z" />
<glyph unicode="+" d="M63 592q8 78 60.5 122t130.5 44h242l26 239q8 78 57.5 124t125.5 46q66 0 107.5 -43t41.5 -106q0 -2 -2 -23q-10 -88 -27 -237h242q78 0 122 -40t44 -106q0 -88 -57.5 -139t-143.5 -51h-241l-27 -254q-8 -70 -58.5 -119t-119.5 -49q-74 0 -114 39t-40 106q0 4 2 25 q10 94 27 252h-242q-88 0 -122 42t-34 128z" />
<glyph unicode="," horiz-adv-x="520" d="M-90 -104q2 33 16 65v2l2 4l154 297q61 115 172 115q59 0 100 -41t41 -98q-2 -23 -18 -74l-170 -318q-59 -98 -154 -98q-59 0 -101 43.5t-42 102.5z" />
<glyph unicode="-" horiz-adv-x="800" d="M0 565q0 82 55.5 137.5t132.5 55.5h375q156 0 156 -137q0 -88 -52.5 -136.5t-136.5 -48.5h-374q-156 0 -156 129z" />
<glyph unicode="." horiz-adv-x="501" d="M-4 164q8 88 65.5 144.5t135.5 56.5q74 0 119.5 -47.5t45.5 -116.5q-8 -90 -65 -145.5t-137 -55.5q-70 0 -117 47t-47 117z" />
<glyph unicode="/" d="M207 104q0 51 20 84l625 1272q61 113 170 113q59 0 95 -39t36 -94q-6 -61 -27 -101l-645 -1282q-10 -29 -52 -57.5t-97 -28.5q-53 0 -89 37t-36 96z" />
<glyph unicode="0" horiz-adv-x="1191" d="M-20 635q0 156 37.5 313.5t111.5 301t200 235.5t283 96h9q125 0 216 -57.5t141 -155.5t73.5 -208.5t23.5 -235.5q0 -150 -38 -308.5t-110.5 -304t-198.5 -240t-282 -94.5q-129 0 -223 57.5t-145 155t-74.5 208t-23.5 237.5zM315 664q0 -150 40 -256.5t126 -106.5 q68 0 121 67.5t82 167t43 193.5t14 164q0 150 -37.5 255t-119.5 105q-70 0 -125.5 -66.5t-85 -164.5t-44 -191t-14.5 -167z" />
<glyph unicode="1" horiz-adv-x="827" d="M-14 1272q0 66 44 115t109 67l310 82q61 -4 101 -43t40 -96q0 -29 -125 -1227q-8 -74 -57.5 -122t-122.5 -48q-70 0 -111 41t-41 106q0 -6 107 1016q-68 -25 -113 -24q-59 0 -100 37t-41 96z" />
<glyph unicode="2" horiz-adv-x="1198" d="M2 131q0 80 59 148l568 673q70 86 80 176q0 57 -38 90t-93 33q-59 0 -106.5 -40t-55.5 -111q-8 -63 -57.5 -121.5t-122.5 -58.5q-72 0 -111 52t-39 118q23 219 180.5 352t349.5 133q172 0 300 -108.5t128 -278.5q0 -221 -194 -449l-361 -420h330q141 0 142 -129 q0 -84 -47.5 -135t-129.5 -55h-606q-176 0 -176 131z" />
<glyph unicode="3" horiz-adv-x="1167" d="M-10 334q0 78 49 135t123 57q45 0 86 -27.5t55 -74.5q39 -119 141 -119q70 0 126.5 45t64.5 123q0 74 -27.5 131.5t-89.5 67.5h-67q-82 0 -121 26.5t-39 87.5q0 160 192 160q39 0 60 4q41 12 71.5 67.5t34.5 108.5q0 135 -114 136q-117 0 -144 -103q-6 -33 -40 -71.5 t-99 -38.5q-156 0 -156 122q0 172 153.5 291t328.5 119q182 0 292.5 -114.5t110.5 -272.5q0 -113 -60.5 -207t-156.5 -153q199 -115 199 -338q0 -217 -170 -368t-381 -151q-127 0 -226.5 57.5t-152.5 145.5q-43 70 -43 154z" />
<glyph unicode="4" horiz-adv-x="1230" d="M-49 498q0 78 59 147l551 760q94 131 230 131q84 0 136 -52t52 -143q0 -20 -70 -677q137 0 138 -129q0 -86 -46.5 -137.5t-123.5 -51.5l-17 -170q-18 -176 -182 -176q-70 0 -108 37t-38 108q0 20 19 199h-430q-82 0 -126 44t-44 110zM395 664h191l32 329z" />
<glyph unicode="5" horiz-adv-x="1218" d="M-20 285q8 82 56 127t109 45q80 0 121 -70q27 -39 81 -64.5t110 -25.5q88 0 151.5 64.5t73.5 150.5q0 96 -46 156.5t-138 60.5q-35 0 -95.5 -15.5t-91.5 -15.5q-150 0 -149 131q0 16 1 27.5t5 27t15.5 52.5t26.5 85t44 145.5t61 215.5q20 70 74.5 110t132.5 40h430 q68 0 106 -42t38 -106q0 -82 -49.5 -132t-128.5 -50h-340q-6 -27 -41 -158q238 0 359.5 -130t121.5 -324q0 -252 -179.5 -432.5t-424.5 -180.5q-180 0 -307 99.5t-127 208.5z" />
<glyph unicode="6" horiz-adv-x="1179" d="M-2 477q0 502 592 1010q68 49 127 49q68 0 109.5 -38t41.5 -105v-21q-6 -61 -61 -110q-6 -6 -60.5 -49.5t-74 -60.5t-59.5 -55t-66.5 -73t-46.5 -74q61 31 170 31q170 0 258 -112.5t88 -278.5q0 -246 -170 -429.5t-402 -183.5q-217 0 -331.5 142.5t-114.5 357.5zM322 496 q0 -82 42 -140.5t115 -60.5q86 8 144.5 75.5t68.5 155.5q0 92 -42 150.5t-130 58.5q-92 0 -145 -73.5t-53 -165.5z" />
<glyph unicode="7" horiz-adv-x="1134" d="M23 1339q0 94 53 144.5t141 50.5h645q66 0 112 -43t46 -111q0 -41 -29 -106l-604 -1145q-68 -129 -184 -129q-72 0 -106 40t-34 99q0 53 29 107l510 956h-420q-159 0 -159 137z" />
<glyph unicode="8" horiz-adv-x="1185" d="M-6 422q0 131 68.5 245.5t181.5 176.5q-59 39 -93 110.5t-34 153.5q0 193 153.5 329t341.5 136q176 0 286 -104.5t110 -272.5q0 -106 -53.5 -196.5t-137.5 -143.5q74 -37 126 -135t52 -203q0 -217 -170 -379t-379 -162q-205 0 -328.5 124t-123.5 321zM334 463 q0 -70 40 -114t107 -44q78 0 129.5 64.5t51.5 140.5q0 72 -40 119t-102 47q-82 0 -134 -66.5t-52 -146.5zM444 1112q0 -51 27 -85t76 -34q47 0 83 43t42 99q0 59 -27 88.5t-67 29.5q-59 0 -96.5 -42t-37.5 -99z" />
<glyph unicode="9" horiz-adv-x="1167" d="M-18 979q0 250 173 425t410 175q213 0 333 -140.5t120 -365.5q0 -309 -177 -584.5t-448 -482.5q-53 -39 -117 -39q-61 0 -101 39t-40 96q10 98 84 154q229 172 348 326q-102 -35 -194 -35q-184 0 -287.5 129t-103.5 303zM307 991q0 -90 48 -141t120 -51q102 0 163.5 77.5 t61.5 178.5q0 84 -45 142t-133 58q-98 0 -156.5 -84t-58.5 -180z" />
<glyph unicode=":" horiz-adv-x="423" d="M-66 164q8 88 65.5 144.5t135.5 56.5q74 0 120 -47.5t46 -116.5q-8 -90 -65.5 -145.5t-137.5 -55.5q-70 0 -117 47t-47 117zM0 797q0 80 59.5 142t143.5 62q72 0 119 -45t47 -114q0 -80 -60.5 -141.5t-144.5 -61.5q-70 0 -117 45t-47 113z" />
<glyph unicode=";" horiz-adv-x="520" d="M-90 -104q0 -59 42 -102.5t101 -43.5q94 0 154 98l170 318q16 51 18 74q0 57 -41 98t-100 41q-111 0 -172 -115l-154 -297l-2 -2v-4q-14 -32 -16 -65zM100 797q0 80 59.5 142t143.5 62q72 0 118 -45t46 -114q0 -80 -59.5 -141.5t-143.5 -61.5q-70 0 -117 45t-47 113z" />
<glyph unicode="&#x3c;" horiz-adv-x="1333" d="M53 586q10 123 133 178l875 387h2q2 2 4 2q57 20 94 21q59 0 95 -38t36 -96q-10 -121 -127 -174l-653 -260l586 -278q104 -47 104 -140q0 -76 -51 -131t-123 -55q-53 0 -110 29l-766 403q-99 54 -99 152z" />
<glyph unicode="=" horiz-adv-x="1349" d="M35 297q0 84 48 135t128 51h858q141 0 141 -129q0 -86 -45 -137t-129 -51h-858q-143 0 -143 131zM86 776q0 86 48 136.5t128 50.5h858q141 0 142 -132q0 -84 -47.5 -134t-127.5 -50h-858q-143 0 -143 129z" />
<glyph unicode="&#x3e;" horiz-adv-x="1333" d="M12 135q10 117 140 178q117 53 320.5 137.5t332.5 143.5l-612 272q-96 49 -97 135q0 72 48.5 122.5t117.5 50.5q31 0 98 -23l789 -387q100 -51 100 -141q0 -59 -37.5 -109.5t-95.5 -79.5l-854 -403q-63 -29 -112 -29q-66 0 -102 37t-36 96z" />
<glyph unicode="?" horiz-adv-x="1003" d="M68 1124q0 168 138 290t316 122q158 0 264.5 -95t106.5 -267q0 -72 -26.5 -148t-60.5 -133t-101.5 -133t-108.5 -117t-121 -117q-63 -49 -121 -49q-66 0 -103.5 38t-37.5 99q0 70 80 154q137 125 202.5 203t71.5 147v12q0 43 -24.5 65t-61.5 22q-35 0 -63.5 -25 t-32.5 -59q-16 -74 -65.5 -116t-110.5 -42q-57 0 -99 38.5t-42 110.5zM143 164q8 88 65.5 144.5t135.5 56.5q70 0 116 -47.5t46 -116.5q-8 -88 -64.5 -144.5t-134.5 -56.5q-72 0 -118 47t-46 117z" />
<glyph unicode="@" horiz-adv-x="1705" d="M104 641q0 393 237 664.5t611 271.5q285 0 463 -153.5t178 -426.5q0 -90 -22.5 -194.5t-63.5 -205.5t-114.5 -168t-163.5 -67q-111 0 -193 117q-115 -115 -250 -114q-150 0 -227.5 97t-77.5 240q0 188 114 337t292 149q109 0 190 -90q18 88 76 88q61 0 61 -68 q0 -88 -23.5 -255t-23.5 -247q0 -117 70 -116q59 0 105.5 55t69 135t33.5 151.5t11 123.5q0 221 -138 350t-362 129q-213 0 -377.5 -118t-245.5 -294t-81 -373q0 -250 151.5 -400t387.5 -150q340 0 516 176q43 41 79 41q51 0 52 -45q-4 -51 -33 -80q-227 -227 -598 -228 q-291 0 -497 183.5t-206 484.5zM629 721q0 -92 47 -153.5t141 -61.5q123 0 197 104l37 357q-68 82 -154 82q-123 0 -195.5 -103.5t-72.5 -224.5z" />
<glyph unicode="A" horiz-adv-x="1392" d="M-43 137q0 39 20 92l560 1217q68 145 213 145q147 0 184 -145q322 -1239 321 -1282q-8 -74 -54 -119t-122 -45q-119 0 -147 104l-53 185h-523q-61 -133 -71 -154q-59 -135 -187 -135q-72 0 -106.5 39t-34.5 98zM500 621h291q-18 80 -46 188.5t-55 216.5z" />
<glyph unicode="B" horiz-adv-x="1239" d="M-49 158q0 18 131 1249q18 184 190 184h373q74 0 150.5 -21.5t147.5 -64.5t115 -119.5t44 -175.5q0 -100 -70.5 -205.5t-154.5 -117.5q113 -16 188.5 -129t75.5 -238q0 -215 -170 -367.5t-379 -152.5h-453q-96 0 -135 31q-53 39 -53 127zM297 328h309q90 0 147.5 51 t63.5 123q0 90 -58.5 147.5t-176.5 57.5h-244zM365 963h239q78 0 124 42t52 101q0 70 -41 114t-121 44h-223z" />
<glyph unicode="C" horiz-adv-x="1458" d="M18 692q0 248 104.5 464t301.5 351t440 135q270 0 449 -178q49 -51 49 -123q-8 -88 -59.5 -137t-120.5 -49q-78 0 -121 49q-84 96 -240 96q-143 0 -250.5 -90t-155.5 -214t-48 -253q0 -176 91 -294.5t263 -118.5q160 0 256 88q55 49 117 49q76 0 112.5 -40t36.5 -103 q0 -100 -78 -164q-223 -182 -487 -183q-319 0 -489.5 207t-170.5 508z" />
<glyph unicode="D" horiz-adv-x="1351" d="M-45 123q0 31 133 1284q18 184 223 184h375q188 0 323.5 -100t197 -254t61.5 -340q0 -227 -99.5 -432t-283 -335t-404.5 -130h-366q-90 0 -125 23.5t-35 99.5zM303 328h203q133 8 232.5 94t144.5 201.5t45 240.5q0 172 -76 286t-221 114h-230z" />
<glyph unicode="E" horiz-adv-x="1013" d="M-35 111q0 23 133 1302q18 178 191 178h577q150 0 150 -131q0 -92 -50.5 -144t-134.5 -52h-421l-29 -277h330q150 0 149 -137q0 -88 -50 -139.5t-134 -51.5h-330l-35 -331h437q162 0 161 -135q0 -92 -54 -142.5t-140 -50.5h-592q-92 0 -125 22.5t-33 88.5z" />
<glyph unicode="F" horiz-adv-x="909" d="M-59 127q0 4 8 82q45 422 127 1198q18 184 190 184h559q152 0 152 -131q0 -92 -51.5 -144t-134.5 -52h-402l-33 -312h283q147 0 147 -133q0 -92 -49 -144t-133 -52h-282l-50 -473q-16 -150 -180 -150q-151 0 -151 127z" />
<glyph unicode="G" horiz-adv-x="1478" d="M20 670q0 250 99.5 472t294 365.5t442.5 143.5q184 0 341 -90.5t157 -219.5q0 -74 -47 -128t-117 -54q-68 0 -119 53q-98 98 -256 99q-111 0 -201 -58.5t-141 -149.5t-78.5 -192.5t-27.5 -197.5q0 -170 85 -285t244 -115q139 0 229.5 80t121.5 228h-297q-162 0 -162 135 q0 92 57 143t146 51h411q109 0 151 -50t42 -138q0 -334 -208 -559.5t-534 -225.5q-309 0 -471 199t-162 494z" />
<glyph unicode="H" horiz-adv-x="1390" d="M-43 131q0 23 135 1299q18 166 176 165q152 0 152 -133q0 -23 -51 -489h594l49 457q18 166 180 165q152 0 151 -135q0 -20 -135 -1296q-18 -164 -182 -164q-150 0 -149 133q0 20 53 510h-594l-51 -479q-18 -164 -181 -164q-147 0 -147 131z" />
<glyph unicode="I" horiz-adv-x="417" d="M-76 135q0 20 135 1295q18 166 181 165q152 0 151 -135q0 -20 -135 -1294q-18 -166 -182 -166q-150 0 -150 135z" />
<glyph unicode="J" horiz-adv-x="925" d="M-55 197q0 84 48 136t130 52q45 0 127 -59q39 -29 84 -29q76 0 86 80l110 1053q18 166 181 165q154 0 153 -135q0 -20 -112 -1083q-20 -184 -145.5 -293t-309.5 -109q-188 0 -307 119q-45 42 -45 103z" />
<glyph unicode="K" horiz-adv-x="1210" d="M-49 131q0 -2 139 1313q14 152 176 151q154 0 154 -127q0 -4 -4 -45q-18 -166 -45 -426l555 547q41 47 116 47q61 0 107.5 -47t46.5 -106q-6 -88 -57 -131l-396 -385l328 -650q31 -37 31 -108q-8 -72 -73.5 -119t-110.5 -47q-47 0 -75 17.5t-61 58.5l-305 600l-158 -152 l-38 -366q-16 -156 -177 -156q-153 0 -153 131z" />
<glyph unicode="L" horiz-adv-x="1040" d="M-49 164q0 25 131 1266q18 166 178 165q152 0 152 -133q0 -23 -119 -1134h514q152 0 151 -135q0 -90 -49 -141.5t-135 -51.5h-653q-170 0 -170 164z" />
<glyph unicode="M" horiz-adv-x="1888" d="M-29 133q0 33 9 74l311 1171q59 221 237 221q78 0 132.5 -51t72.5 -143l144 -733l303 735q78 188 245 188q178 0 189 -219l51 -1196q-2 -82 -54 -130t-124 -48q-78 0 -115 38t-41 120l-26 776q-76 -145 -182.5 -431t-137.5 -358q-61 -147 -182 -147q-131 0 -156 147 l-133 793l-213 -778q-43 -160 -184 -160q-146 0 -146 131z" />
<glyph unicode="N" horiz-adv-x="1372" d="M-45 135q0 20 133 1282q18 178 180 178q109 0 170 -108l475 -838l82 778q18 166 179 166q152 0 151 -137q0 -4 -14 -141q-49 -467 -119 -1137q-18 -178 -182 -178q-109 0 -164 96l-481 836l-80 -764q-18 -168 -181 -168q-149 0 -149 135z" />
<glyph unicode="O" horiz-adv-x="1542" d="M25 698q0 236 94 448t278.5 352t417.5 140q156 0 277.5 -59t196.5 -160.5t113 -228.5t38 -270q0 -238 -96.5 -450t-283 -350t-419.5 -138q-201 0 -344 102t-207.5 260.5t-64.5 353.5zM362 733q0 -182 81 -304t235 -122q106 0 191 57.5t133.5 146.5t74 185.5t25.5 188.5 q0 180 -82 301t-240 121q-106 0 -190 -56.5t-131 -145.5t-72 -184.5t-25 -187.5z" />
<glyph unicode="P" horiz-adv-x="1263" d="M-51 133q0 20 135 1290q18 170 188 170h428q219 0 353.5 -126t134.5 -332q0 -244 -173 -413t-411 -171h-285l-40 -385q-18 -166 -181 -166q-149 0 -149 133zM354 879h277q100 6 160.5 66.5t60.5 154.5q0 78 -55.5 122t-157.5 44h-246z" />
<glyph unicode="Q" horiz-adv-x="1564" d="M25 700q0 233 95 446.5t280.5 352.5t416.5 139q154 0 275.5 -59t196.5 -160.5t113 -228.5t38 -270q0 -303 -154 -562l76 -79q37 -43 37 -115q-6 -68 -54.5 -115t-123.5 -47q-63 0 -105 45l-59 72q-193 -137 -414 -137q-299 0 -458.5 207.5t-159.5 510.5zM365 735 q0 -182 80.5 -305t234.5 -123q98 0 174 41l-117 129q-41 45 -41 109q8 84 56.5 133t109.5 49q47 0 86 -33q23 -20 68 -75.5t49 -59.5q39 125 39 285q0 180 -81 301t-239 121q-104 0 -188 -56.5t-133 -144.5t-73.5 -184.5t-24.5 -186.5z" />
<glyph unicode="R" horiz-adv-x="1269" d="M-51 145q0 23 133 1278q18 170 219 170h408q225 0 356 -127t131 -303q0 -137 -81 -245.5t-204 -167.5l150 -488q16 -57 16 -88q0 -76 -49 -126t-125 -50q-102 0 -139 90l-197 586h-237l-51 -494q-18 -180 -181 -180q-149 0 -149 145zM365 999h297q76 0 137 38t69 102 q0 66 -53 96.5t-127 30.5h-297z" />
<glyph unicode="S" horiz-adv-x="1114" d="M-43 229q8 94 51 136.5t125 42.5q61 0 119 -35q84 -57 186 -58q90 0 155.5 46.5t74.5 130.5q0 55 -43 96t-156 96q-72 35 -116 58.5t-105.5 66.5t-96 85t-60 103.5t-25.5 130.5q0 217 154.5 363.5t379.5 146.5q199 0 342 -118q78 -61 78 -140q0 -74 -55.5 -133 t-126.5 -59q-66 0 -123 51q-72 59 -154 59q-137 0 -149 -116q0 -31 11 -54.5t38.5 -43t48 -31t66 -33t67.5 -31.5q190 -98 282.5 -191t92.5 -243q0 -254 -185.5 -417t-431.5 -163q-207 0 -366 113q-78 53 -78 141z" />
<glyph unicode="T" horiz-adv-x="1077" d="M80 1399q0 90 52 142t136 52h703q152 0 151 -135q0 -90 -52 -141t-134 -51h-188l-115 -1092q-18 -174 -176 -174q-154 0 -154 141q0 20 117 1125h-187q-153 0 -153 133z" />
<glyph unicode="U" horiz-adv-x="1402" d="M2 518q0 55 88 899q18 176 191 176q154 0 153 -141q0 -23 -82 -803q-4 -53 -4 -61q0 -266 270 -266q131 0 212 73.5t100 253.5l80 768q18 176 190 176q156 0 156 -143q0 -20 -84 -815q-37 -344 -231.5 -501t-477.5 -157q-256 0 -408.5 129t-152.5 412z" />
<glyph unicode="V" horiz-adv-x="1353" d="M92 1434q18 164 180 163q123 0 152 -120l209 -904q70 152 201 460t190 442q55 121 168 120q61 0 111.5 -49t50.5 -110q-6 -45 -23 -72l-543 -1184q-82 -180 -217 -180q-127 0 -168 164l-307 1204q-4 33 -4 66z" />
<glyph unicode="W" horiz-adv-x="1882" d="M106 1430q8 76 61.5 120.5t121 44.5t107.5 -38.5t46 -110.5l62 -793q49 127 137 404.5t133 396.5q57 141 207 141q152 0 174 -141l119 -788l201 778q41 156 186 155q66 0 108.5 -41.5t42.5 -109.5q0 -39 -8 -55l-352 -1221q-20 -76 -84.5 -124t-142.5 -48q-70 0 -123 39 t-66 119l-131 764l-262 -736q-33 -92 -99.5 -141t-135.5 -49q-74 0 -129.5 52t-63.5 134z" />
<glyph unicode="X" horiz-adv-x="1359" d="M-45 121q0 4 1 13t1 13q6 59 47 117l451 600l-285 467q-25 41 -25 82q0 4 1 10.5t1 10.5q8 70 60.5 114.5t118.5 44.5q88 0 133 -71l223 -365l268 356q57 80 148 80q59 0 102 -42t43 -103q-6 -70 -41 -115l-350 -446l340 -621q29 -53 29 -102v-19q-14 -147 -164 -147 q-86 0 -142 82l-292 504l-371 -500q-61 -86 -164 -86q-133 0 -133 123z" />
<glyph unicode="Y" horiz-adv-x="1157" d="M82 1415q0 80 49 130t127 50q100 0 131 -88l193 -559q45 66 149.5 280t151.5 279q63 88 157 88q143 0 144 -125q0 -66 -35 -120l-440 -705l-50 -469q-18 -176 -184 -176q-150 0 -149 139q0 25 51 510q-47 104 -138.5 347t-136.5 341q-20 41 -20 78z" />
<glyph unicode="Z" horiz-adv-x="1224" d="M-47 141q0 20 2 33q10 74 49 125l741 967h-483q-150 0 -149 131q0 20 2 30q18 166 182 166h762q90 0 133 -35.5t43 -97.5q0 -4 -1 -11t-1 -11q-6 -66 -68 -146l-743 -964h551q154 0 153 -135q0 -4 -1 -12.5t-1 -12.5q-18 -168 -184 -168h-842q-145 0 -145 141z" />
<glyph unicode="[" horiz-adv-x="516" d="M-76 33q0 23 139 1349q20 180 187 181h133q137 0 137 -129q0 -76 -41 -123t-112 -49l-113 -1078q123 -6 123 -121q0 -80 -47 -129t-123 -49h-133q-150 1 -150 148z" />
<glyph unicode="\" horiz-adv-x="954" d="M86 1411q8 70 58.5 110t117.5 40q66 0 92.5 -30t46.5 -99q369 -1266 369 -1289v-8q-6 -61 -53 -104t-113 -43q-117 0 -149 116l-363 1246q-6 24 -6 61z" />
<glyph unicode="]" horiz-adv-x="516" d="M-78 12q0 78 40 125t110 47l112 1063q-121 4 -121 121q0 84 45.5 132t122.5 48h136q150 0 149 -143q0 -23 -139 -1337q-18 -182 -184 -183h-136q-135 0 -135 127z" />
<glyph unicode="^" d="M76 621q6 72 39 116l481 721q61 90 166 90q102 0 145 -94l316 -719q16 -43 16 -76q0 -78 -50 -126t-126 -48q-57 0 -91 29t-61 92l-202 473l-312 -475q-43 -68 -77.5 -93.5t-98.5 -25.5q-61 0 -103 35t-42 101z" />
<glyph unicode="_" horiz-adv-x="1257" d="M-96 -190q0 82 48 130t128 48h909q147 0 148 -127q0 -82 -49.5 -128t-131.5 -46h-909q-143 0 -143 123z" />
<glyph unicode="`" horiz-adv-x="522" d="M31 1077q0 45 24 90l152 283q55 104 164 104q70 0 110.5 -35.5t40.5 -101.5q0 -35 -22 -80l-148 -274q-66 -119 -164 -119q-70 0 -113.5 37t-43.5 96z" />
<glyph unicode="a" horiz-adv-x="1310" d="M4 496q0 117 32 238.5t92 229t159.5 176t222.5 68.5q80 0 153.5 -40t110.5 -115q23 154 178 153q143 0 144 -137q0 2 -80 -747q0 -31 33 -31q158 0 157 -131q0 -82 -53 -129t-135 -47q-258 0 -307 186q-70 -88 -160 -140.5t-174 -52.5q-154 0 -263.5 145t-109.5 374z M326 528q0 -106 42 -175.5t121.5 -69.5t139 66.5t83 147.5t23.5 154q0 119 -51 189.5t-123 70.5q-78 0 -134 -71.5t-78.5 -155.5t-22.5 -156z" />
<glyph unicode="b" horiz-adv-x="1173" d="M-39 113q0 20 145 1400q18 162 173 162q145 0 145 -131q0 -20 -51 -504q135 166 323 166q147 0 254 -133t107 -368q0 -154 -65.5 -319t-193.5 -285.5t-282 -120.5q-86 0 -160.5 50t-103.5 142l-6 -66q-6 -59 -54.5 -91.5t-91.5 -32.5q-139 0 -139 131zM330 545 q0 -109 46 -182.5t136 -73.5q59 0 104.5 39t69 99t34.5 119.5t11 110.5q0 106 -37 181t-116 75q-84 0 -143.5 -66.5t-82 -146t-22.5 -155.5z" />
<glyph unicode="c" horiz-adv-x="1054" d="M2 524q0 272 187.5 475t451.5 203q152 0 250 -47q100 -49 100 -137q-8 -78 -52 -120t-114 -42q-29 0 -101.5 17.5t-113.5 17.5q-129 0 -207.5 -105.5t-78.5 -232.5q0 -111 65.5 -185.5t163.5 -74.5q88 0 158 45q35 23 75 22q51 0 91.5 -38.5t40.5 -94.5q-8 -98 -101 -155 q-137 -90 -299 -90q-225 0 -370.5 153t-145.5 389z" />
<glyph unicode="d" horiz-adv-x="1290" d="M4 496q0 158 57.5 317.5t177 277t271.5 117.5q80 0 154.5 -40t111.5 -115l47 460q18 164 181 164q141 0 141 -133q0 -20 -127 -1218q0 -35 33 -35q158 0 157 -131q0 -82 -53 -129t-135 -47q-258 0 -307 186q-70 -90 -161 -141.5t-175 -51.5q-154 0 -263.5 145t-109.5 374 zM326 528q0 -106 42 -175.5t121.5 -69.5t139 66.5t83 147.5t23.5 154q0 119 -51 189.5t-123 70.5q-78 0 -134 -71.5t-78.5 -155.5t-22.5 -156z" />
<glyph unicode="e" horiz-adv-x="1179" d="M6 516q0 176 73 338t214 268.5t315 106.5q219 0 338 -126t119 -337q0 -55 -4 -84q-4 -47 -20.5 -77t-35 -46t-58.5 -24.5t-67.5 -9.5t-88.5 -1h-469q0 -4 -1.5 -13t-1.5 -13q0 -109 83 -165.5t165 -56.5q84 0 190.5 63.5t153.5 63.5q102 0 103 -135q-6 -57 -45 -94 q-178 -197 -463 -197q-238 0 -369 151.5t-131 387.5zM360 737h379q2 10 2 29q0 80 -47 123t-114 43q-78 0 -144 -52.5t-76 -142.5z" />
<glyph unicode="f" horiz-adv-x="886" d="M-190 -297q0 63 42 108.5t103 45.5q49 0 90 38.5t45 88.5l94 909q-76 2 -112.5 26.5t-36.5 86.5q0 82 50 123.5t132 41.5l14 140q16 160 148.5 254t284.5 94q158 0 157 -133q0 -66 -42 -110t-105 -44q-49 0 -87 -38t-42 -89l-6 -74q2 0 6 1.5t8 1.5q80 0 118 -26t38 -89 q0 -86 -51.5 -127t-135.5 -41h-24l-103 -973q-25 -160 -152.5 -254t-277.5 -94q-155 0 -155 133z" />
<glyph unicode="g" horiz-adv-x="1218" d="M-14 -268q8 76 55 127t121 51q35 0 108 -39q78 -45 170 -45q129 0 186.5 91t75.5 269q-125 -188 -323 -188q-156 0 -265.5 137t-109.5 363q0 156 57.5 315.5t177 277t271.5 117.5q80 0 154.5 -40t111.5 -115l-2 -11q16 164 178 164q143 0 144 -137q0 4 -95 -911 q-33 -309 -209 -484.5t-407 -175.5q-178 0 -336 107q-63 43 -63 127zM326 528q0 -106 42 -175.5t121.5 -69.5t139 66.5t83 147.5t23.5 154q0 119 -51 189.5t-123 70.5q-78 0 -134 -71.5t-78.5 -155.5t-22.5 -156z" />
<glyph unicode="h" horiz-adv-x="1101" d="M-41 127q0 20 141 1366q18 164 172 164q143 0 144 -131q0 -20 -49 -482q143 147 301 148q125 0 216 -84t91 -256q0 -23 -70 -694q-16 -158 -176 -158q-143 0 -143 129q0 18 2 29q61 602 61 598q0 74 -40 114.5t-95 40.5q-66 0 -119 -48t-61 -134l-60 -571 q-16 -158 -176 -158q-139 0 -139 127z" />
<glyph unicode="i" horiz-adv-x="645" d="M-6 256q0 31 78 762q14 158 174 158q147 0 147 -132q0 -4 -6 -61q-25 -240 -65 -629v-14q0 -49 32 -49q158 0 158 -131q0 -82 -53 -129t-135 -47q-166 0 -248 71.5t-82 200.5zM90 1462q8 88 66.5 144.5t136.5 56.5q72 0 119 -45t47 -115q0 -80 -60.5 -142.5t-144.5 -62.5 q-70 0 -117 47t-47 117z" />
<glyph unicode="j" horiz-adv-x="495" d="M-346 -297q0 -133 158 -133q147 0 276 94t154 254q121 1122 120 1143q0 127 -143 127q-147 0 -182 -158l-109 -1046q-4 -51 -41 -89t-86 -38q-63 0 -105 -44t-42 -110zM70 1462q8 90 66.5 145.5t136 55.5t120.5 -52t43 -130q-8 -76 -66.5 -129.5t-136.5 -53.5 q-72 0 -117.5 47t-45.5 117z" />
<glyph unicode="k" horiz-adv-x="1087" d="M-43 127q0 20 141 1368q18 160 172 160q143 0 144 -129q0 -41 -72 -713l432 332q53 39 111 39q59 0 102 -45t43 -105q-4 -49 -21.5 -76.5t-56.5 -54.5l-231 -182q14 -35 65.5 -145.5t78 -172t52 -142.5t25.5 -126q-8 -68 -49 -104.5t-98 -36.5q-96 0 -146 84l-190 471 q-10 -6 -81 -63.5t-79 -65.5l-27 -262q-16 -158 -174 -158q-141 0 -141 127z" />
<glyph unicode="l" horiz-adv-x="561" d="M-55 272q0 82 17.5 228.5t50 424t57.5 572.5q16 162 176 162q143 0 143 -131q0 -20 -121 -1180q0 -57 33 -57q158 0 158 -131q0 -82 -53.5 -129t-135.5 -47q-172 0 -248.5 73.5t-76.5 214.5z" />
<glyph unicode="m" horiz-adv-x="1744" d="M-41 127q0 20 92 895q6 70 51 117t119 47q72 0 109 -39t37 -90v-13q143 147 301 148q90 0 173 -44t113 -130q55 78 149.5 124t192.5 46q131 0 219.5 -84t88.5 -252q0 -23 -70 -694q-16 -158 -176 -158q-143 0 -144 129q0 18 3 29q61 602 61 598q0 74 -40 114.5t-95 40.5 q-59 0 -108.5 -38.5t-65.5 -108.5l-64 -606q-16 -158 -176 -158q-143 0 -143 129q0 18 2 29q61 602 61 598q0 74 -40 114.5t-95 40.5q-66 0 -119 -48t-61 -134l-60 -571q-16 -158 -176 -158q-139 0 -139 127z" />
<glyph unicode="n" horiz-adv-x="1069" d="M-41 127q0 20 92 895q6 70 51 117t119 47q72 0 109 -39t37 -90v-13q143 147 301 148q125 0 216 -84t91 -256q0 -23 -70 -694q-16 -158 -176 -158q-143 0 -143 129q0 18 2 29q61 602 61 598q0 74 -40 114.5t-95 40.5q-66 0 -119 -48t-61 -134l-60 -571q-16 -158 -176 -158 q-139 0 -139 127z" />
<glyph unicode="o" horiz-adv-x="1204" d="M8 516q0 283 170 496t430 213q225 0 348 -160t123 -389q0 -283 -163.5 -488.5t-436.5 -205.5q-227 0 -349 153.5t-122 380.5zM334 559q0 -117 43 -204t131 -87q82 0 141.5 65.5t82 144.5t22.5 155q0 119 -44 210t-132 91q-82 0 -140.5 -69.5t-81 -150.5t-22.5 -155z" />
<glyph unicode="p" horiz-adv-x="1173" d="M-82 -283q0 -2 139 1325q16 162 172 162q145 0 146 -133q0 -4 -1 -13t-1 -16q135 164 323 164q147 0 254 -133t107 -368q0 -154 -65.5 -319t-193.5 -285.5t-282 -120.5q-84 0 -159.5 46t-106.5 124l-47 -443q-6 -59 -54.5 -92t-91.5 -33q-139 0 -139 135zM330 545 q0 -109 46 -182.5t136 -73.5q59 0 104.5 39t69 99t34.5 119.5t11 110.5q0 106 -37 181t-116 75q-84 0 -143.5 -66.5t-82 -146t-22.5 -155.5z" />
<glyph unicode="q" horiz-adv-x="1185" d="M4 496q0 158 57.5 317.5t177 277t271.5 117.5q80 0 154.5 -40t111.5 -115l-2 -11q16 164 178 164q143 0 144 -137q0 -4 -11 -108q-49 -463 -129 -1225q-16 -152 -174 -152q-129 0 -129 119q0 16 45 442q-127 -168 -321 -168q-154 0 -263.5 145t-109.5 374zM326 528 q0 -106 42 -175.5t121.5 -69.5t139 66.5t83 147.5t23.5 154q0 119 -51 189.5t-123 70.5q-78 0 -134 -71.5t-78.5 -155.5t-22.5 -156z" />
<glyph unicode="r" horiz-adv-x="835" d="M-51 127q0 20 92 897q18 164 174 164q51 0 85 -31t34 -94v-10q31 51 118 101t150 50q106 0 157.5 -44t51.5 -109q0 -74 -54.5 -127.5t-125.5 -53.5q-25 0 -65 6.5t-56 6.5q-61 0 -118.5 -44t-65.5 -110l-60 -571q-16 -158 -174 -158q-143 0 -143 127z" />
<glyph unicode="s" horiz-adv-x="1019" d="M-20 215q6 76 53 114t108 38q57 0 152.5 -56.5t179.5 -56.5q100 0 109 74q-8 33 -65.5 69.5t-131.5 76.5t-147.5 87t-124 120t-50.5 157q18 180 160 282.5t332 102.5q182 0 319 -76q70 -41 70 -119q-6 -63 -47 -103t-109 -40q-51 0 -145 30.5t-158 30.5q-94 0 -102 -74 q0 -37 55.5 -75.5t133 -76.5t155.5 -83t133 -115.5t55 -156.5q0 -188 -154.5 -285.5t-350.5 -97.5q-199 0 -379 120q-51 35 -51 113z" />
<glyph unicode="t" horiz-adv-x="817" d="M37 1018q0 133 160 151l8 80q16 156 174 156q145 0 145 -129q0 -4 -1 -10t-3 -33t-6 -64h88q80 0 116 -23.5t36 -84.5q0 -156 -176 -156h-93q-55 -537 -55 -559q0 -55 33 -55q158 0 158 -131q0 -82 -53.5 -129t-135.5 -47q-178 0 -249.5 78.5t-71.5 236.5q0 57 57 610 q-131 15 -131 109z" />
<glyph unicode="u" horiz-adv-x="1114" d="M-8 393q0 33 63 651q18 158 172 158q143 0 144 -125q0 -20 -54 -559q-4 -45 -4 -59q0 -166 121 -166q78 0 144.5 82t80.5 221l48 455q8 80 48 120.5t122 40.5q141 0 141 -129q0 -20 -98 -958q-16 -152 -175 -152q-43 0 -74.5 29t-31.5 84v16l6 62q-152 -176 -334 -176 q-135 0 -227 108.5t-92 296.5z" />
<glyph unicode="v" horiz-adv-x="1030" d="M51 1026q8 80 56.5 125t117.5 45q127 0 150 -145l88 -553l201 559q68 139 182 139q63 0 101 -34t38 -99q0 -53 -20 -86l-387 -862q-53 -115 -177 -115q-119 0 -147 115l-199 866q-4 29 -4 45z" />
<glyph unicode="w" horiz-adv-x="1804" d="M78 1026q0 78 50 123t126 45q115 0 152 -119l94 -600l205 592q20 59 72 92t110 33q55 0 106 -36t60 -95l84 -576l198 590q41 121 176 121q76 0 107 -29.5t31 -95.5q0 -57 -25 -110l-362 -830q-57 -129 -179 -129q-119 0 -149 135q-27 113 -48.5 252t-49.5 258l-211 -514 q-57 -133 -187 -133q-131 0 -164 137q-196 844 -196 889z" />
<glyph unicode="x" horiz-adv-x="1120" d="M-41 123q0 82 66 162l315 329l-209 314q-27 39 -27 88q0 72 54.5 124t124.5 52q94 0 139 -80l119 -252l178 256q53 78 151 78q63 0 104.5 -40t41.5 -101q-6 -74 -53 -125l-275 -303l246 -332q37 -49 37 -115q0 -82 -45 -130t-119 -48q-109 0 -158 94l-170 281l-227 -285 q-72 -86 -162 -86q-131 0 -131 119z" />
<glyph unicode="y" horiz-adv-x="1058" d="M-88 -297q0 4 1 11t1 12q8 68 52 99.5t91 31.5q72 0 122 70.5t69 158.5q-35 154 -97.5 451t-91.5 424q-8 25 -8 49q0 84 47 133t125 49q125 0 152 -127l84 -637q37 80 117.5 323.5t115.5 323.5q51 119 176 119q72 0 107 -38t35 -97q0 -47 -19 -96l-502 -1076 q-152 -317 -421 -317q-156 0 -156 133z" />
<glyph unicode="z" horiz-adv-x="1081" d="M-37 131q0 72 66 141l475 621h-283q-143 0 -143 129q0 170 178 170h557q158 0 158 -125q0 -76 -70 -149l-491 -623h354q145 0 145 -129q0 -82 -47 -124t-131 -42h-586q-182 0 -182 131z" />
<glyph unicode="{" horiz-adv-x="776" d="M6 731q4 45 30.5 77t53.5 44t72 27q37 0 54 75.5t21.5 170t8.5 104.5q16 186 108 252.5t256 66.5q57 0 96 -41t39 -92q-12 -154 -184 -153q-10 0 -14 -48q-2 -25 -9.5 -100.5t-13.5 -108t-19 -89t-38 -99.5t-59 -82q63 -74 63 -221q0 -51 -13.5 -147.5t-13.5 -143.5 q0 -39 25 -39q137 -10 137 -114q0 -4 -1 -12.5t-1 -12.5q-16 -143 -168 -143q-313 0 -313 239q0 61 18.5 175t18.5 171q0 78 -19 97q-82 16 -108.5 44.5t-26.5 102.5z" />
<glyph unicode="|" horiz-adv-x="358" d="M-76 94q0 20 148 1407q18 170 176 170q141 0 141 -137q0 -20 -147 -1409q-18 -158 -174 -158q-144 0 -144 127z" />
<glyph unicode="}" horiz-adv-x="776" d="M-66 45q14 129 162 139q31 0 39 62q4 31 10.5 102.5t11.5 110.5t18 94t38 99t61 83q-66 86 -65 242q0 61 4 94q2 23 15.5 79t13.5 87q0 25 -11 25q-80 0 -117.5 33.5t-37.5 107.5q6 53 56 99t110 46q150 0 229.5 -54t79.5 -204q0 -53 -16.5 -154.5t-16.5 -150.5 q0 -92 33 -106l10 -5q55 -16 86 -42.5t31 -79.5q0 -137 -172 -168q-29 -33 -41 -102.5t-15.5 -168t-5.5 -114.5q-14 -135 -94 -216t-282 -81q-134 0 -134 143z" />
<glyph unicode="~" horiz-adv-x="1253" d="M-2 477q0 113 131 222.5t244 109.5q111 0 260 -88q82 -49 110 -49l5 4q4 4 11 12t13 14q27 33 45.5 50.5t55 36t77.5 18.5q139 0 140 -137q0 -115 -140.5 -222.5t-253.5 -107.5q-100 0 -231 82q-10 6 -33 18l-34 19q-11 6 -27.5 11t-28.5 5q-10 0 -37 -29 q-86 -106 -170 -106q-137 0 -137 137z" />
<glyph unicode="&#xa3;" horiz-adv-x="1388" d="M35 131q0 90 104 191q80 76 123 136t51 130v47h-135q-143 0 -143 127q0 86 47 136t129 52h31q-35 84 -35 166q0 131 84 234.5t202.5 153.5t239.5 50q197 0 344.5 -110.5t147.5 -298.5q-6 -80 -56.5 -133.5t-117.5 -53.5q-106 0 -148 125q-2 74 -60.5 115t-135.5 41 q-76 0 -118 -40t-42 -109q0 -76 28 -140h193q141 0 141 -129q0 -86 -48 -136t-126 -50h-94q0 -23 -4 -64q-16 -137 -98 -252h479q143 0 143 -131q0 -84 -48 -134t-128 -50h-799q-151 0 -151 127z" />
<glyph unicode="&#xa4;" horiz-adv-x="1589" d="M45 145q8 104 105 174l161 109q-8 61 -8 94q0 78 45 183l-147 112q-70 68 -70 160q6 68 56.5 104.5t109.5 36.5t119 -53l143 -133q129 70 227 69q111 0 209 -65l162 129q68 53 135 53q55 0 97.5 -32.5t42.5 -92.5q-12 -115 -107 -176l-164 -121q29 -35 29 -102 q0 -104 -41 -180l123 -92q74 -66 74 -146q-6 -78 -57.5 -117t-110.5 -39q-68 0 -123 54l-107 102q-135 -88 -260 -88q-129 0 -235 94q-14 -10 -64.5 -51t-71.5 -53q-72 -57 -135 -58q-55 0 -96 33t-41 92zM590 520q0 -74 39 -114.5t96 -40.5q78 0 128 65.5t50 147.5 q0 70 -42 109.5t-101 39.5q-76 0 -123 -61.5t-47 -145.5z" />
<glyph unicode="&#xa5;" horiz-adv-x="1157" d="M-59 379q0 84 48 135t130 51h250l8 82h-250q-143 0 -143 129q0 86 48 136.5t128 50.5h116l-176 374q-18 45 -18 78q0 80 49 130t127 50q100 0 131 -88l189 -544h14q43 63 143.5 271t147.5 273q63 88 157 88q143 0 144 -125q0 -70 -35 -120l-270 -387h139q141 0 141 -132 q0 -84 -47 -134t-127 -50h-276l-9 -82h277q139 0 139 -125q0 -90 -46 -141t-128 -51h-276l-7 -72q-14 -176 -184 -176q-150 0 -149 139q0 25 8 109h-250q-143 0 -143 131z" />
<glyph unicode="&#xa6;" horiz-adv-x="358" d="M-72 127q0 20 56 537q8 80 57 128t119 48q63 0 102 -34t39 -97q0 -18 -55 -551q-16 -158 -174 -158q-144 0 -144 127zM23 1040q0 4 4 45q18 166 45 428q8 80 58 128.5t118 48.5q66 0 104.5 -36t38.5 -102q0 -2 -2 -30q-18 -156 -49 -455q-14 -158 -174 -158 q-143 0 -143 131z" />
<glyph unicode="&#xa7;" horiz-adv-x="1087" d="M-37 100q0 72 52.5 125.5t121.5 53.5q43 0 116 -29t136 -29q117 0 123 49q0 27 -82 72t-181 90t-181 125t-82 168q0 84 55 148.5t135 64.5q57 0 91 -34t50.5 -79t65.5 -99t129 -85q70 -27 99.5 -39t86 -42t82 -58.5t47 -73.5t21.5 -100q0 -201 -151.5 -316.5 t-348.5 -115.5q-172 0 -317 79q-68 39 -68 125zM63 1272q0 195 154 310.5t348 115.5q178 0 318 -82q70 -39 69 -125q0 -4 -1 -10t-1 -11q-8 -72 -59 -114.5t-115 -42.5q-43 0 -114.5 29.5t-137.5 29.5q-117 0 -123 -51q0 -27 82 -69t181.5 -87t181.5 -124.5t82 -172.5 q0 -84 -54.5 -149.5t-134.5 -65.5q-49 0 -75.5 19.5t-41 53.5t-33 71t-66.5 81t-126 74q-152 53 -243 125t-91 195z" />
<glyph unicode="&#xa8;" horiz-adv-x="997" d="M66 1257q8 90 65 145.5t137 55.5q70 0 117 -47t47 -117q-8 -88 -65.5 -144t-135.5 -56q-74 0 -119.5 46.5t-45.5 116.5zM575 1257q8 88 64.5 144.5t134.5 56.5q74 0 119 -46t45 -116q-8 -90 -64.5 -146t-136.5 -56q-70 0 -116 46.5t-46 116.5z" />
<glyph unicode="&#xa9;" horiz-adv-x="1832" d="M43 659q0 244 119 446t317.5 315.5t429.5 113.5q317 0 509 -191.5t192 -496.5q0 -365 -255 -618t-614 -253q-315 0 -506.5 190.5t-191.5 493.5zM254 682q0 -229 141.5 -373.5t376.5 -144.5q274 0 455.5 198.5t181.5 460.5q0 231 -141.5 380t-376.5 149 q-276 0 -456.5 -203t-180.5 -467zM379 700q0 219 153.5 384t360.5 165q86 0 190 -49q39 -16 61.5 -50t22.5 -69q-6 -66 -50 -110.5t-101 -44.5q-20 0 -74.5 18.5t-85.5 18.5q-88 0 -141 -75t-53 -163q0 -72 38.5 -123t100.5 -51q31 0 85 17.5t81 17.5q125 0 125 -111 q0 -82 -76 -143q-88 -63 -230 -64q-188 0 -297.5 124t-109.5 308z" />
<glyph unicode="&#xab;" horiz-adv-x="1185" d="M-4 590q2 43 49 108l205 295q55 68 129 68q57 0 102 -44t45 -102q-6 -53 -32 -92l-170 -233l131 -283q8 -18 8 -49q-6 -51 -64.5 -96t-117.5 -45q-82 0 -115 65l-146 299q-24 50 -24 109zM485 590q2 43 43 106l217 301q51 61 129 62q150 0 150 -121q0 -63 -39 -119 l-172 -229l131 -279q10 -20 10 -53q-6 -51 -64.5 -96t-117.5 -45q-86 0 -113 65l-153 299q-21 50 -21 109z" />
<glyph unicode="&#xac;" horiz-adv-x="1380" d="M14 563q0 84 54.5 139.5t132.5 55.5h843q152 0 152 -146q0 -20 -31 -303q-18 -170 -172 -170q-61 0 -104 41t-43 109l14 147h-692q-154 0 -154 127z" />
<glyph unicode="&#xad;" horiz-adv-x="0" />
<glyph unicode="&#xae;" horiz-adv-x="1830" d="M45 678q0 367 256 618.5t608 251.5q315 0 507 -190.5t192 -493.5q0 -373 -252 -622.5t-611 -249.5q-313 0 -506.5 191.5t-193.5 494.5zM248 700q0 -231 144.5 -378.5t383.5 -147.5q279 0 456 199.5t177 466.5q0 229 -141.5 375.5t-378.5 146.5q-276 0 -458.5 -200 t-182.5 -462zM449 412q0 18 69 678q10 100 84 135q41 18 86 18h252q139 0 223 -90q76 -76 76 -186q0 -88 -49 -158t-127 -111l41 -69q72 -127 72 -189q-8 -70 -53.5 -105.5t-114.5 -35.5q-94 0 -136 104l-114 248l-23 -211q-14 -141 -160 -141q-126 0 -126 113zM778 860h109 q43 0 68.5 21.5t27.5 50.5v8q0 59 -82 59h-108z" />
<glyph unicode="&#xb0;" horiz-adv-x="622" d="M66 1337q0 129 90 217t213 88q113 0 180 -68.5t67 -172.5q0 -127 -92 -217t-213 -90q-111 0 -178 68.5t-67 174.5zM205 1352q0 -53 33.5 -87t87.5 -34q59 0 102 42t49 111q0 51 -33.5 86t-89.5 35q-66 0 -105.5 -42.5t-43.5 -110.5z" />
<glyph unicode="&#xb1;" d="M29 131q0 84 56 136t132 52h815q156 0 156 -131q0 -88 -51.5 -137t-137.5 -49h-815q-155 0 -155 129zM96 821q0 92 51.5 142.5t135.5 50.5h241l8 96q6 80 53.5 122t127.5 42q68 0 109.5 -36t41.5 -101v-4q0 -2 -1 -10.5t-2 -19.5t-4 -35t-5 -54h242q78 0 122 -41t44 -105 q0 -88 -56.5 -134t-144.5 -46h-242l-12 -115q-8 -72 -60.5 -115.5t-123.5 -43.5q-145 0 -146 129q0 20 14 145h-241q-152 0 -152 133z" />
<glyph unicode="&#xb2;" horiz-adv-x="677" d="M0 885q0 39 31 73l282 336q35 45 41 88q0 29 -19.5 45.5t-45.5 16.5q-31 0 -54.5 -19.5t-27.5 -56.5q-4 -31 -28.5 -60.5t-61.5 -29.5q-35 0 -54.5 26.5t-19.5 59.5q10 111 89 176.5t175 65.5q86 0 150.5 -54.5t64.5 -138.5q0 -111 -98 -225l-180 -209h166q70 0 69 -66 q0 -90 -88 -94h-303q-88 0 -88 66z" />
<glyph unicode="&#xb3;" horiz-adv-x="684" d="M-6 985q0 39 24.5 67.5t61.5 28.5q55 0 72 -51q18 -59 69 -59q35 0 63.5 22.5t32.5 61.5q0 90 -59 100h-33q-80 0 -80 57q0 80 97 80q18 0 28 2q20 6 36 34t18 54q0 68 -58 68q-59 0 -71 -51q-2 -16 -19.5 -36t-50.5 -20q-78 0 -78 62q0 86 77 145.5t165 59.5 q90 0 145 -57.5t55 -137.5q0 -113 -108 -180q100 -55 100 -168q0 -109 -85 -184.5t-191 -75.5q-125 0 -189 102q-22 35 -22 76z" />
<glyph unicode="&#xb5;" horiz-adv-x="1120" d="M-88 -299q0 -2 5 41t39 373.5t95 918.5q14 160 174 160q145 0 146 -131q0 -8 -6 -74l-60 -569q4 -49 36 -81t81 -32q78 0 135 60.5t66 144.5l55 522q18 160 178 160q145 0 145 -133q0 -4 -8 -78l-86 -813q-18 -170 -176 -170q-47 0 -80 30.5t-33 88.5q-27 -57 -83 -91 t-121 -34q-53 0 -92 31.5t-50 83.5q-6 -63 -20 -189.5t-21 -189.5q-18 -160 -180 -160q-139 0 -139 131z" />
<glyph unicode="&#xb6;" horiz-adv-x="1171" d="M41 1073q0 238 174 360.5t432 122.5h479q59 -4 96.5 -46t37.5 -105q-8 -61 -55.5 -105.5t-108.5 -46.5l-119 -1122q-6 -61 -47 -97t-92 -36q-45 0 -79 30.5t-34 86.5q0 2 6 59q39 360 115 1083h-158l-117 -1116q-8 -68 -49 -106.5t-92 -38.5q-49 0 -83 36t-34 99 q0 4 4 43q23 201 60 557q-152 23 -244 116t-92 226z" />
<glyph unicode="&#xb7;" horiz-adv-x="428" d="M-8 711q8 88 66.5 144t134.5 56q74 0 119.5 -47t45.5 -116q-8 -88 -65 -144.5t-137 -56.5q-70 0 -117 47t-47 117z" />
<glyph unicode="&#xbb;" horiz-adv-x="1075" d="M-41 231q4 51 31 84l190 275l-135 274l2 -6q-16 29 -16 60q4 57 59 103t119 46q86 0 121 -74l143 -295q29 -61 29 -100q-6 -66 -49 -119l-207 -295q-43 -66 -133 -65q-154 -1 -154 112zM451 229q4 61 34 90l183 273q-12 23 -127 231q-20 35 -21 76q0 78 47 123t125 45 q96 0 127 -72l152 -297q25 -49 24 -92q-6 -70 -47 -127l-215 -297q-45 -63 -137 -63q-145 -1 -145 110z" />
<glyph unicode="&#xbd;" horiz-adv-x="1290" d="M-8 1475q0 33 22.5 57t55.5 35l153 41q31 -4 51.5 -22.5t20.5 -47.5q0 -4 -64 -614q-4 -37 -28.5 -60.5t-61.5 -23.5q-35 0 -55 20.5t-20 52.5v2q8 74 53 506q-29 -12 -56 -12q-31 0 -51 18.5t-20 47.5zM59 86q0 31 15 59l678 1377q49 80 106 80q31 0 50.5 -24t19.5 -60 q0 -35 -19 -72l-698 -1393q-35 -51 -80 -51q-31 0 -51.5 23.5t-20.5 60.5zM653 66q0 39 31 73l283 336q35 45 41 88q0 29 -19.5 45.5t-46.5 16.5q-31 0 -54.5 -19.5t-27.5 -56.5q-4 -31 -28.5 -60.5t-61.5 -29.5q-35 0 -54.5 26.5t-19.5 59.5q10 111 89 176t176 65 q86 0 150.5 -54t64.5 -138q0 -111 -99 -225l-180 -209h166q70 0 70 -66q0 -90 -89 -94h-303q-88 0 -88 66z" />
<glyph unicode="&#x192;" horiz-adv-x="768" d="M-190 -297q0 4 1 11t1 12q8 68 52 99.5t91 31.5q49 0 90 38.5t45 88.5l94 909q-76 2 -112.5 26.5t-36.5 86.5q0 82 50 123.5t132 41.5l14 140q16 160 148.5 254t284.5 94q158 0 157 -133q0 -66 -42 -110t-105 -44q-49 0 -87 -38t-42 -89l-6 -74q2 0 6 1.5t8 1.5 q80 0 118 -26t38 -89q0 -86 -51.5 -127t-135.5 -41h-24l-103 -973q-25 -160 -152.5 -254t-277.5 -94q-155 0 -155 133z" />
<glyph unicode="&#x384;" horiz-adv-x="704" d="M37 1092q0 53 26 96l150 278q57 106 160 107q139 0 139 -129q0 -45 -20 -86l-152 -277q-20 -37 -33.5 -57t-46.5 -40.5t-78 -20.5q-74 0 -109.5 35t-35.5 94z" />
<glyph unicode="&#x385;" horiz-adv-x="1316" d="M76 1255q8 90 64.5 146.5t135.5 56.5q70 0 116 -47t46 -117q-8 -88 -64.5 -144t-133.5 -56q-74 0 -119 45.5t-45 115.5zM498 1225q4 61 26 90l-2 -6l150 286q57 106 166 107q143 0 143 -133q0 -23 -23 -86l-151 -275q-63 -119 -162 -118q-72 0 -109.5 37t-37.5 98z M928 1257q8 90 65.5 145.5t136.5 55.5q70 0 117 -47t47 -117q-8 -88 -65.5 -144t-134.5 -56q-74 0 -120 46.5t-46 116.5z" />
<glyph unicode="&#x386;" horiz-adv-x="1421" d="M-66 1092q0 53 27 96l150 278q57 106 159 107q139 0 140 -129q0 -45 -21 -86l-151 -277q-20 -37 -34 -57t-46.5 -40.5t-77.5 -20.5q-74 0 -110 35t-36 94zM0 137q0 39 20 92l560 1217q68 145 213 145q147 0 184 -145q322 -1239 321 -1282q-8 -74 -54 -119t-122 -45 q-119 0 -147 104l-53 185h-523q-61 -133 -71 -154q-57 -135 -187 -135q-72 0 -106.5 39t-34.5 98zM543 621h291q-18 80 -46 188.5t-55 216.5z" />
<glyph unicode="&#x388;" horiz-adv-x="1576" d="M-86 1092q0 53 27 96l149 278q57 106 160 107q139 0 139 -129q0 -45 -20 -86l-152 -277q-20 -37 -33.5 -57t-46.5 -40.5t-78 -20.5q-74 0 -109.5 35t-35.5 94zM416 111q0 23 133 1302q18 178 190 178h578q150 0 149 -131q0 -92 -50 -144t-134 -52h-422l-29 -277h330 q150 0 150 -137q0 -88 -50.5 -139.5t-134.5 -51.5h-329l-35 -331h436q162 0 162 -135q0 -92 -54.5 -142.5t-140.5 -50.5h-592q-92 0 -124.5 22.5t-32.5 88.5z" />
<glyph unicode="&#x389;" horiz-adv-x="1929" d="M-66 1092q0 53 27 96l150 278q57 106 159 107q139 0 140 -129q0 -45 -21 -86l-151 -277q-20 -37 -34 -57t-46.5 -40.5t-77.5 -20.5q-74 0 -110 35t-36 94zM430 131q0 23 135 1299q18 166 176 165q152 0 152 -133q0 -23 -51 -489h594l49 457q18 166 180 165 q152 0 152 -135q0 -20 -136 -1296q-18 -164 -182 -164q-150 0 -149 133q0 20 53 510h-594l-51 -479q-18 -164 -180 -164q-148 0 -148 131z" />
<glyph unicode="&#x38a;" horiz-adv-x="952" d="M-86 1092q0 53 27 96l149 278q57 106 160 107q139 0 139 -129q0 -45 -20 -86l-152 -277q-20 -37 -33.5 -57t-46.5 -40.5t-78 -20.5q-74 0 -109.5 35t-35.5 94zM375 135q0 20 135 1295q18 166 180 165q152 0 152 -135q0 -20 -135 -1294q-18 -166 -183 -166 q-149 0 -149 135z" />
<glyph unicode="&#x38c;" horiz-adv-x="1863" d="M-78 1092q0 53 27 96l149 278q57 106 160 107q139 0 139 -129q0 -45 -20 -86l-152 -277q-20 -37 -33.5 -57t-46 -40.5t-77.5 -20.5q-74 0 -110 35t-36 94zM283 698q0 236 94 448t278.5 352t417.5 140q156 0 278 -59t196.5 -160.5t112.5 -228.5t38 -270q0 -238 -96.5 -450 t-282.5 -350t-420 -138q-201 0 -344 102t-207.5 260.5t-64.5 353.5zM621 733q0 -182 80.5 -304t234.5 -122q106 0 191 57.5t133.5 146.5t74 185.5t25.5 188.5q0 180 -82 301t-240 121q-106 0 -190 -56.5t-131 -145.5t-71.5 -184.5t-24.5 -187.5z" />
<glyph unicode="&#x38e;" horiz-adv-x="1746" d="M-74 1092q0 53 27 96l149 278q57 106 160 107q139 0 139 -129q0 -45 -20 -86l-152 -277q-20 -37 -33.5 -57t-46 -40.5t-77.5 -20.5q-74 0 -110 35t-36 94zM512 1415q0 80 49 130t127 50q100 0 131 -88l193 -559q45 66 149.5 280t151.5 279q63 88 157 88q143 0 144 -125 q0 -66 -35 -120l-440 -705l-49 -469q-18 -176 -185 -176q-150 0 -149 139q0 25 51 510q-47 104 -138 347t-137 341q-20 41 -20 78z" />
<glyph unicode="&#x38f;" horiz-adv-x="1849" d="M-66 1092q0 53 27 96l150 278q57 106 159 107q139 0 140 -129q0 -45 -21 -86l-151 -277q-20 -37 -34 -57t-46.5 -40.5t-77.5 -20.5q-74 0 -110 35t-36 94zM367 133q0 88 49 141.5t129 53.5h919q145 0 146 -138q0 -86 -48.5 -138t-129.5 -52h-920q-145 0 -145 133z M444 975q0 287 204 475t491 188q279 0 429 -155.5t150 -378.5q0 -287 -210 -471t-494 -184q-274 0 -422 152.5t-148 373.5zM774 1012q0 -100 72 -170t207 -70q137 0 237.5 84t100.5 211q0 102 -75 175t-208 73q-137 0 -235.5 -88t-98.5 -215z" />
<glyph unicode="&#x390;" horiz-adv-x="710" d="M-291 1487q8 90 64.5 146.5t136.5 56.5q70 0 116 -47.5t46 -116.5q-8 -88 -64.5 -144.5t-134.5 -56.5q-74 0 -119 46t-45 116zM12 256q0 31 78 762q14 158 176 158q150 0 150 -132q0 -2 -1 -7t-2 -20.5t-3 -33.5l-66 -643q0 -49 31 -49q160 0 160 -131q0 -82 -54.5 -129 t-136.5 -47q-332 0 -332 272zM131 1456q4 61 27 90l-2 -6l149 287q57 106 166 106q143 0 143 -133q0 -23 -22 -86l-152 -274q-63 -119 -161 -119q-72 0 -110 37t-38 98zM561 1489q8 90 65.5 145.5t137.5 55.5q70 0 117 -47.5t47 -116.5q-8 -88 -65.5 -144.5t-135.5 -56.5 q-74 0 -120 47t-46 117z" />
<glyph unicode="&#x391;" horiz-adv-x="1392" d="M-43 137q0 39 20 92l560 1217q68 145 213 145q147 0 184 -145q322 -1239 321 -1282q-8 -74 -54 -119t-122 -45q-119 0 -147 104l-53 185h-523q-61 -133 -71 -154q-59 -135 -187 -135q-72 0 -106.5 39t-34.5 98zM500 621h291q-18 80 -46 188.5t-55 216.5z" />
<glyph unicode="&#x392;" horiz-adv-x="1146" d="M-49 158q0 18 131 1249q18 184 190 184h291q74 0 151 -21.5t147.5 -64.5t114.5 -119.5t44 -175.5q0 -100 -70.5 -205.5t-154.5 -117.5q113 -16 188.5 -129t75.5 -238q0 -215 -170 -367.5t-379 -152.5h-371q-96 0 -135 31q-53 39 -53 127zM297 328h227q90 0 147.5 51 t63.5 123q0 90 -58.5 147.5t-176.5 57.5h-162zM365 963h157q78 0 124 42t52 101q0 70 -41 114t-120 44h-142z" />
<glyph unicode="&#x393;" horiz-adv-x="1009" d="M-55 135q0 20 133 1274q18 184 190 184h596q72 0 113 -43t41 -106q-18 -178 -189 -178h-438l-115 -1100q-18 -166 -184 -166q-147 0 -147 135z" />
<glyph unicode="&#x394;" horiz-adv-x="1429" d="M-43 119q0 39 25 96l-5 -6l586 1239q68 150 209 149q156 0 184 -147l340 -1239q6 -31 7 -57q-14 -154 -224 -154h-952q-170 0 -170 119zM391 340h514l-192 692z" />
<glyph unicode="&#x395;" horiz-adv-x="1013" d="M-35 111q0 23 133 1302q18 178 191 178h577q150 0 150 -131q0 -92 -50.5 -144t-134.5 -52h-421l-29 -277h330q150 0 149 -137q0 -88 -50 -139.5t-134 -51.5h-330l-35 -331h437q162 0 161 -135q0 -92 -54 -142.5t-140 -50.5h-592q-92 0 -125 22.5t-33 88.5z" />
<glyph unicode="&#x396;" horiz-adv-x="1224" d="M-47 141q0 20 2 33q10 74 49 125l741 967h-483q-150 0 -149 131q0 20 2 30q18 166 182 166h762q90 0 133 -35.5t43 -97.5q0 -4 -1 -11t-1 -11q-6 -66 -68 -146l-743 -964h551q154 0 153 -135q0 -4 -1 -12.5t-1 -12.5q-18 -168 -184 -168h-842q-145 0 -145 141z" />
<glyph unicode="&#x397;" horiz-adv-x="1390" d="M-43 131q0 23 135 1299q18 166 176 165q152 0 152 -133q0 -23 -51 -489h594l49 457q18 166 180 165q152 0 151 -135q0 -20 -135 -1296q-18 -164 -182 -164q-150 0 -149 133q0 20 53 510h-594l-51 -479q-18 -164 -181 -164q-147 0 -147 131z" />
<glyph unicode="&#x398;" horiz-adv-x="1540" d="M25 698q0 236 94 448t278.5 352t417.5 140q156 0 277.5 -59t196.5 -160.5t113 -228.5t38 -270q0 -238 -96.5 -450t-283 -350t-419.5 -138q-201 0 -344 102t-207.5 260.5t-64.5 353.5zM365 733q0 -182 80.5 -304t234.5 -122q106 0 191 57.5t133.5 146.5t74 185.5 t25.5 188.5q0 180 -82 301t-240 121q-106 0 -190 -56.5t-131 -145.5t-71.5 -184.5t-24.5 -187.5zM506 788q0 86 51 139.5t135 53.5h135q150 0 150 -137q0 -90 -51.5 -142.5t-132.5 -52.5h-136q-151 0 -151 139z" />
<glyph unicode="&#x399;" horiz-adv-x="417" d="M-76 135q0 20 135 1295q18 166 181 165q152 0 151 -135q0 -20 -135 -1294q-18 -166 -182 -166q-150 0 -150 135z" />
<glyph unicode="&#x39a;" horiz-adv-x="1210" d="M-49 131q0 -2 139 1313q14 152 176 151q154 0 154 -127q0 -4 -4 -45q-18 -166 -45 -426l555 547q41 47 116 47q61 0 107.5 -47t46.5 -106q-6 -88 -57 -131l-396 -385l328 -650q31 -37 31 -108q-8 -72 -73.5 -119t-110.5 -47q-47 0 -75 17.5t-61 58.5l-305 600l-158 -152 l-38 -366q-16 -156 -177 -156q-153 0 -153 131z" />
<glyph unicode="&#x39b;" horiz-adv-x="1415" d="M-41 141q2 33 14 66l580 1241q72 150 213 149q150 0 180 -149l332 -1217q10 -47 10 -59q0 -76 -53 -124t-127 -48q-70 0 -102.5 31.5t-53.5 105.5l-243 893l-426 -909q-55 -121 -170 -121q-63 0 -108.5 39t-45.5 102z" />
<glyph unicode="&#x39c;" horiz-adv-x="1851" d="M-29 133q0 33 9 74l311 1171q59 221 237 221q78 0 132.5 -51t72.5 -143l144 -733l303 735q78 188 245 188q178 0 189 -219l51 -1196q-2 -82 -54 -130t-124 -48q-78 0 -115 38t-41 120l-26 776q-76 -145 -182.5 -431t-137.5 -358q-61 -147 -182 -147q-131 0 -156 147 l-133 793l-213 -778q-43 -160 -184 -160q-146 0 -146 131z" />
<glyph unicode="&#x39d;" horiz-adv-x="1372" d="M-45 135q0 20 133 1282q18 178 180 178q109 0 170 -108l475 -838l82 778q18 166 179 166q152 0 151 -137q0 -4 -14 -141q-49 -467 -119 -1137q-18 -178 -182 -178q-109 0 -164 96l-481 836l-80 -764q-18 -168 -181 -168q-149 0 -149 135z" />
<glyph unicode="&#x39e;" horiz-adv-x="1331" d="M-53 139q0 92 56 143.5t142 51.5h875q158 0 158 -135q0 -92 -53.5 -143.5t-139.5 -51.5h-874q-164 0 -164 135zM109 1395q0 94 49 146t133 52h842q152 0 151 -133q0 -92 -51 -143t-135 -51h-842q-147 0 -147 129zM178 795q0 90 50.5 141t131.5 51h562q152 0 151 -137 q0 -88 -50 -139.5t-136 -51.5h-561q-148 1 -148 136z" />
<glyph unicode="&#x39f;" horiz-adv-x="1542" d="M25 698q0 236 94 448t278.5 352t417.5 140q156 0 277.5 -59t196.5 -160.5t113 -228.5t38 -270q0 -238 -96.5 -450t-283 -350t-419.5 -138q-201 0 -344 102t-207.5 260.5t-64.5 353.5zM362 733q0 -182 81 -304t235 -122q106 0 191 57.5t133.5 146.5t74 185.5t25.5 188.5 q0 180 -82 301t-240 121q-106 0 -190 -56.5t-131 -145.5t-72 -184.5t-25 -187.5z" />
<glyph unicode="&#x3a0;" horiz-adv-x="1353" d="M-45 135q0 20 135 1295q18 168 178 167h901q61 0 105.5 -46t44.5 -107l-133 -1278q-18 -166 -180 -166q-147 0 -148 133q0 20 117 1133h-576l-114 -1100q-18 -166 -185 -166q-145 0 -145 135z" />
<glyph unicode="&#x3a1;" horiz-adv-x="1087" d="M-51 133q0 20 135 1290q18 170 188 170h346q219 0 353.5 -126t134.5 -332q0 -244 -173 -413t-411 -171h-203l-40 -385q-18 -166 -181 -166q-149 0 -149 133zM354 879h195q100 6 160.5 66.5t60.5 154.5q0 78 -55.5 122t-157.5 44h-164z" />
<glyph unicode="&#x3a3;" horiz-adv-x="1245" d="M-47 141q0 90 51 158l399 532l-253 461q-37 72 -37 127q18 174 209 174h718q152 0 152 -137q0 -88 -50 -140t-136 -52h-445l182 -330q27 -47 27 -90q0 -57 -43 -105l-311 -411h516q152 0 151 -140q0 -86 -50 -137t-134 -51h-801q-145 0 -145 141z" />
<glyph unicode="&#x3a4;" horiz-adv-x="1077" d="M80 1399q0 90 52 142t136 52h703q152 0 151 -135q0 -90 -52 -141t-134 -51h-188l-115 -1092q-18 -174 -176 -174q-154 0 -154 141q0 20 117 1125h-187q-153 0 -153 133z" />
<glyph unicode="&#x3a5;" horiz-adv-x="1157" d="M82 1415q0 80 49 130t127 50q100 0 131 -88l193 -559q45 66 149.5 280t151.5 279q63 88 157 88q143 0 144 -125q0 -66 -35 -120l-440 -705l-50 -469q-18 -176 -184 -176q-150 0 -149 139q0 25 51 510q-47 104 -138.5 347t-136.5 341q-20 41 -20 78z" />
<glyph unicode="&#x3a6;" horiz-adv-x="1554" d="M35 803q0 254 187.5 436t441.5 221l2 15q18 166 184 165q78 0 114.5 -31.5t36.5 -82.5q0 -10 -6 -66q217 -27 360.5 -171t143.5 -357q0 -254 -185.5 -429t-443.5 -218l-12 -117q-18 -168 -180 -168q-152 0 -152 135q0 23 15 148q-221 27 -363.5 168t-142.5 352zM358 842 q0 -90 61.5 -160t153.5 -94l60 571q-115 -31 -195 -119.5t-80 -197.5zM903 586q115 31 191.5 116.5t76.5 194.5q0 92 -58 165t-150 95z" />
<glyph unicode="&#x3a7;" horiz-adv-x="1359" d="M-45 121q0 4 1 13t1 13q6 59 47 117l451 600l-285 467q-25 41 -25 82q0 4 1 10.5t1 10.5q8 70 60.5 114.5t118.5 44.5q88 0 133 -71l223 -365l268 356q57 80 148 80q59 0 102 -42t43 -103q-6 -70 -41 -115l-350 -446l340 -621q29 -53 29 -102v-19q-14 -147 -164 -147 q-86 0 -142 82l-292 504l-371 -500q-61 -86 -164 -86q-133 0 -133 123z" />
<glyph unicode="&#x3a8;" horiz-adv-x="1558" d="M41 858q0 57 51 533q18 164 184 163q145 0 146 -137q0 -84 -24.5 -251t-24.5 -248q0 -113 50 -195t142 -107l90 859q18 166 181 165q147 0 147 -131q0 -23 -92 -897q115 23 180.5 118t79.5 241l45 420q18 166 182 165q152 0 152 -135q0 -20 -49 -475q-29 -272 -197 -441 t-426 -198l-14 -143q-18 -164 -180 -164q-147 0 -148 133q0 20 16 176q-229 29 -360 173.5t-131 375.5z" />
<glyph unicode="&#x3a9;" horiz-adv-x="1505" d="M23 133q0 88 49 141.5t129 53.5h919q145 0 146 -138q0 -86 -48.5 -138t-130.5 -52h-919q-145 0 -145 133zM100 975q0 287 204 475t491 188q279 0 429 -155.5t150 -378.5q0 -287 -210 -471t-494 -184q-274 0 -422 152.5t-148 373.5zM430 1012q0 -100 71.5 -170t207.5 -70 q137 0 237.5 84t100.5 211q0 102 -75 175t-208 73q-137 0 -235.5 -88t-98.5 -215z" />
<glyph unicode="&#x3aa;" horiz-adv-x="567" d="M-170 1808q8 90 65.5 145.5t137.5 55.5q70 0 117 -47t47 -117q-8 -88 -65.5 -144t-135.5 -56q-74 0 -120 46.5t-46 116.5zM-76 135q0 -135 150 -135q164 0 182 166q135 1274 135 1294q0 135 -151 135q-162 0 -181 -165q-135 -1275 -135 -1295zM340 1808q8 88 64.5 144.5 t134.5 56.5q74 0 118.5 -46t44.5 -116q-8 -90 -64 -146t-136 -56q-70 0 -116 46.5t-46 116.5z" />
<glyph unicode="&#x3ab;" horiz-adv-x="1277" d="M41 1415q0 -37 20 -78q45 -98 136.5 -340.5t138.5 -347.5q-51 -485 -51 -510q0 -139 149 -139q166 0 184 176l50 469l440 705q35 55 35 120q0 125 -144 125q-94 0 -157 -88q-47 -66 -151.5 -279.5t-149.5 -279.5l-193 559q-31 88 -131 88q-78 0 -127 -50t-49 -130z M182 1808q8 90 65.5 145.5t137.5 55.5q70 0 117 -47t47 -117q-8 -88 -65.5 -144t-135.5 -56q-74 0 -120 46.5t-46 116.5zM692 1808q8 88 64.5 144.5t134.5 56.5q74 0 119 -46t45 -116q-8 -90 -64.5 -146t-136.5 -56q-70 0 -116 46.5t-46 116.5z" />
<glyph unicode="&#x3ac;" horiz-adv-x="1269" d="M-18 496q0 117 31.5 238.5t92 229t161 176t222.5 68.5q80 0 153 -37.5t110 -111.5q25 147 180 147q145 0 145 -137l-8 -70q-25 -242 -72 -677q4 -31 31 -31q160 0 160 -131q0 -82 -54.5 -129t-136.5 -47q-262 0 -309 182q-72 -86 -161 -137.5t-171 -51.5q-156 0 -265 145 t-109 374zM307 528q0 -106 41 -175.5t121 -69.5q78 0 137.5 66.5t83 147.5t23.5 154q0 119 -50.5 189.5t-121.5 70.5q-76 0 -132.5 -71.5t-79 -155.5t-22.5 -156zM504 1450q0 53 26 96l150 279q57 106 160 106q139 0 139 -129q0 -45 -21 -86l-151 -276q-20 -37 -33.5 -57.5 t-46.5 -41t-78 -20.5q-74 0 -109.5 35t-35.5 94z" />
<glyph unicode="&#x3ad;" horiz-adv-x="1003" d="M-43 303q0 104 78 185t186 130q-158 90 -158 213q14 152 154.5 261.5t339.5 109.5q82 0 151.5 -11t129 -51t59.5 -106q-14 -139 -156 -139q-29 0 -90 10q-45 10 -110 10q-78 0 -122 -30.5t-50 -71.5v-8q0 -31 22.5 -50.5t63.5 -19.5h110q164 0 164 -104 q-6 -72 -51 -102.5t-133 -30.5h-111q-57 -8 -94 -43t-41 -80q0 -51 35 -84t104 -33q47 0 137.5 20.5t135.5 20.5q135 0 135 -106q-8 -70 -56.5 -118t-122 -68.5t-136 -29t-130.5 -8.5q-197 0 -320.5 99.5t-123.5 234.5zM416 1450q0 53 26 96l150 279q57 106 160 106 q139 0 139 -129q0 -45 -21 -86l-151 -276q-20 -37 -33.5 -57.5t-46.5 -41t-78 -20.5q-74 0 -109.5 35t-35.5 94z" />
<glyph unicode="&#x3ae;" horiz-adv-x="1069" d="M-43 127q0 20 92 895q6 70 52 117t120 47t111 -39t37 -90v-8q139 143 299 143q125 0 217 -84t92 -256q0 -25 -117 -1124q-16 -158 -178 -158q-143 0 -143 127q0 23 100 975q8 78 8 84q0 74 -40 114.5t-93 40.5q-61 0 -113.5 -50t-64.5 -132l-60 -571q-16 -158 -178 -158 q-141 0 -141 127zM395 1450q0 53 27 96l149 279q57 106 160 106q139 0 139 -129q0 -45 -20 -86l-152 -276q-20 -37 -33.5 -57.5t-46 -41t-77.5 -20.5q-74 0 -110 35t-36 94z" />
<glyph unicode="&#x3af;" horiz-adv-x="579" d="M-45 256q0 31 78 762q14 158 176 158q150 0 149 -132q0 -2 -1 -7t-2 -20.5t-3 -33.5l-65 -643q0 -49 30 -49q160 0 160 -131q0 -82 -54 -129t-136 -47q-332 0 -332 272zM78 1450q0 53 26 96l150 279q57 106 160 106q139 0 139 -129q0 -45 -21 -86l-151 -276 q-20 -37 -33.5 -57.5t-46.5 -41t-78 -20.5q-74 0 -109.5 35t-35.5 94z" />
<glyph unicode="&#x3b0;" horiz-adv-x="1153" d="M-16 375q0 -174 122.5 -286t303.5 -112q190 0 346.5 128t177.5 317q68 625 67 641q0 131 -147 131q-158 0 -176 -160l-62 -569q-8 -72 -56 -120t-116 -48q-61 0 -96 49t-39 119q35 340 56 528q6 61 6 70q0 131 -148 131q-158 0 -172 -160q-67 -628 -67 -659zM-2 1487 q8 90 64.5 146.5t136.5 56.5q70 0 115.5 -47.5t45.5 -116.5q-8 -88 -64 -144.5t-134 -56.5q-74 0 -119 46t-45 116zM420 1456q4 61 26 90l-2 -6l150 287q57 106 166 106q143 0 143 -133q0 -23 -22 -86l-152 -274q-63 -119 -162 -119q-72 0 -109.5 37t-37.5 98zM850 1489 q8 90 65.5 145.5t137.5 55.5q70 0 117 -47.5t47 -116.5q-8 -88 -65.5 -144.5t-135.5 -56.5q-74 0 -120 47t-46 117z" />
<glyph unicode="&#x3b1;" horiz-adv-x="1269" d="M-18 496q0 117 31.5 238.5t92 229t161 176t222.5 68.5q80 0 153 -37.5t110 -111.5q25 147 180 147q145 0 145 -137l-8 -70q-25 -242 -72 -677q4 -31 31 -31q160 0 160 -131q0 -82 -54.5 -129t-136.5 -47q-262 0 -309 182q-72 -86 -161 -137.5t-171 -51.5q-156 0 -265 145 t-109 374zM307 528q0 -106 41 -175.5t121 -69.5q78 0 137.5 66.5t83 147.5t23.5 154q0 119 -50.5 189.5t-121.5 70.5q-76 0 -132.5 -71.5t-79 -155.5t-22.5 -156z" />
<glyph unicode="&#x3b2;" horiz-adv-x="1144" d="M-84 -285q0 14 143 1377q23 213 159 349t362 136q172 0 285.5 -105.5t113.5 -246.5q0 -92 -51 -174t-140 -133q113 -43 167.5 -145.5t54.5 -225.5q0 -209 -140.5 -382t-355.5 -173q-147 0 -238 117l-36 -359q-18 -170 -181 -170q-143 0 -143 135zM311 446 q4 -66 48 -106.5t114 -40.5q88 0 145.5 65.5t69.5 153.5q-4 182 -127 242q-4 0 -24.5 2t-44.5 2q-33 0 -50.5 26.5t-17.5 65.5q0 49 24.5 90t73.5 47h45q31 14 52.5 49t25.5 74q0 147 -100 148q-86 0 -123 -62.5t-49 -179.5z" />
<glyph unicode="&#x3b3;" horiz-adv-x="1081" d="M55 1069q8 61 63.5 106.5t114.5 45.5q66 0 109 -37t47 -94l107 -609l229 609q61 131 176 131q59 0 104.5 -42t45.5 -104q-2 -45 -70 -184q-303 -631 -363 -778l-36 -361q-18 -176 -185 -176q-145 0 -145 143q0 31 39 392l-234 899q-2 6 -2 59z" />
<glyph unicode="&#x3b4;" horiz-adv-x="1173" d="M-2 473q0 186 111.5 331.5t287.5 192.5q-170 100 -170 273q12 129 141.5 221t331.5 92q154 0 251.5 -49t97.5 -143q-12 -125 -138 -125q-47 0 -114 22q-76 23 -113 23q-143 0 -154 -94q0 -39 40 -75t110 -61q381 -133 381 -475q0 -262 -164 -443t-422 -181 q-225 0 -351 140t-126 351zM322 510q0 -94 48 -158.5t134 -64.5q111 0 173 83t62 191q0 96 -49 159.5t-135 63.5q-102 0 -167.5 -87t-65.5 -187z" />
<glyph unicode="&#x3b5;" horiz-adv-x="991" d="M-43 303q0 104 78 185t186 130q-158 90 -158 213q14 152 154.5 261.5t339.5 109.5q82 0 151.5 -11t129 -51t59.5 -106q-14 -139 -156 -139q-29 0 -90 10q-45 10 -110 10q-78 0 -122 -30.5t-50 -71.5v-8q0 -31 22.5 -50.5t63.5 -19.5h110q164 0 164 -104 q-6 -72 -51 -102.5t-133 -30.5h-111q-57 -8 -94 -43t-41 -80q0 -51 35 -84t104 -33q47 0 137.5 20.5t135.5 20.5q135 0 135 -106q-8 -70 -56.5 -118t-122 -68.5t-136 -29t-130.5 -8.5q-197 0 -320.5 99.5t-123.5 234.5z" />
<glyph unicode="&#x3b6;" horiz-adv-x="1101" d="M16 489q0 438 539 734h-270q-70 0 -116 35.5t-46 101.5q8 90 62.5 133t131.5 43h594q147 0 148 -125q0 -141 -148 -188q-217 -72 -394 -275t-177 -413q0 -113 67.5 -170.5t196.5 -92.5q272 -74 273 -266q0 -127 -67 -242.5t-177 -115.5q-57 0 -95 43t-38 98q8 66 22 111 q8 25 8 32q0 20 -14 32.5t-55 27.5l-49 18q-72 27 -125.5 55.5t-123 84t-108.5 142t-39 197.5z" />
<glyph unicode="&#x3b7;" horiz-adv-x="1067" d="M-43 127q0 20 92 895q6 70 52 117t120 47t111 -39t37 -90v-8q139 143 299 143q125 0 217 -84t92 -256q0 -25 -117 -1124q-16 -158 -178 -158q-143 0 -143 127q0 23 100 975q8 78 8 84q0 74 -40 114.5t-93 40.5q-61 0 -113.5 -50t-64.5 -132l-60 -571q-16 -158 -178 -158 q-141 0 -141 127z" />
<glyph unicode="&#x3b8;" horiz-adv-x="1230" d="M18 635q0 150 37 306.5t107.5 302t195.5 238.5t283 93q123 0 215 -60.5t141.5 -161t73 -212t23.5 -234.5q0 -152 -37 -306.5t-108.5 -295.5t-196.5 -230t-281 -89q-125 0 -216 57t-141.5 153.5t-73 206t-22.5 232.5zM342 651q0 -92 13.5 -165.5t53.5 -130t101 -56.5 q70 0 124 68.5t80.5 171t39 196.5t12.5 168q0 352 -152 352q-72 0 -128 -67.5t-85.5 -168.5t-44 -196.5t-14.5 -171.5zM403 758q0 88 43 140t121 52t106.5 -27.5t28.5 -86.5q0 -104 -37.5 -152.5t-129.5 -48.5q-132 0 -132 123z" />
<glyph unicode="&#x3b9;" horiz-adv-x="606" d="M-29 256q0 31 78 762q14 158 176 158q150 0 150 -132q0 -2 -1 -7t-2 -20.5t-3 -33.5l-66 -643q0 -49 31 -49q160 0 160 -131q0 -82 -54.5 -129t-136.5 -47q-332 0 -332 272z" />
<glyph unicode="&#x3ba;" horiz-adv-x="1087" d="M-45 127q0 20 92 903q18 160 176 160q143 0 144 -127q0 -23 -2 -33l-25 -254l432 359q47 39 113 39q61 0 104 -40t43 -100q-8 -82 -78 -131l-235 -190q227 -524 227 -561q0 -74 -40 -115t-113 -41q-45 0 -85 23.5t-61 58.5l-188 457q-147 -121 -160 -134l-25 -243 q-16 -158 -176 -158q-143 0 -143 127z" />
<glyph unicode="&#x3bb;" horiz-adv-x="1042" d="M-43 127q0 35 23 88l389 809q-68 258 -86 381q6 66 59 107.5t121 41.5q63 0 103 -40.5t55 -98.5l282 -1184q8 -25 8 -57q-16 -174 -172 -174q-125 0 -155 125l-92 528q-10 -25 -99 -256q-63 -172 -108 -270q-59 -127 -185 -127q-72 0 -107.5 35t-35.5 92z" />
<glyph unicode="&#x3bc;" horiz-adv-x="1071" d="M-86 -299q0 4 16 156q51 489 123 1177q14 160 172 160q143 0 144 -131q0 -4 -7 -74q-25 -233 -59 -569q0 -51 33 -82t86 -31q82 0 137 59.5t66 145.5l55 522q14 160 176 160q143 0 143 -133q0 -4 -8 -78q-33 -313 -86 -813q-18 -170 -174 -170q-45 0 -77.5 30.5 t-32.5 88.5v12q-25 -61 -82.5 -99t-124.5 -38q-57 0 -97.5 39t-46.5 96l-41 -399q-18 -160 -178 -160q-137 0 -137 131z" />
<glyph unicode="&#x3bd;" horiz-adv-x="1030" d="M49 1026q8 80 57.5 125t118.5 45q129 0 152 -145l86 -543l199 549q68 139 184 139q66 0 103.5 -34t37.5 -99q0 -41 -20 -86l-387 -862q-53 -115 -179 -115q-121 0 -149 115l-199 866q-4 29 -4 45z" />
<glyph unicode="&#x3be;" horiz-adv-x="1101" d="M-20 389q0 147 105 261t255 188q-74 18 -119 65t-45 103q8 80 60.5 146.5t134.5 98.5q-2 0 -16.5 1t-26.5 1q-8 0 -53.5 2t-69.5 5q-80 6 -80 100q8 94 45 135t111 41h591q147 0 148 -125q0 -158 -158 -158q-182 0 -266 -49t-92 -121q0 -123 131 -122q182 0 182 -107 q0 -78 -60.5 -109.5t-144.5 -31.5q-106 0 -187 -61.5t-93 -147.5q4 -80 65.5 -142.5t177.5 -93.5q283 -78 283 -264q0 -115 -81 -235.5t-183 -120.5q-57 0 -96 43t-39 98q2 23 18.5 72t16.5 73q0 43 -68 60q-68 14 -119 29.5t-116.5 48t-108.5 71.5t-72.5 103.5t-29.5 142.5 z" />
<glyph unicode="&#x3bf;" horiz-adv-x="1204" d="M-16 516q0 283 170 496t432 213q227 0 350 -160t123 -389q0 -283 -164 -488.5t-438 -205.5q-227 0 -350 153.5t-123 380.5zM313 559q0 -117 43 -204t129 -87q82 0 140.5 65.5t81 144.5t22.5 155q0 119 -43 210t-131 91q-80 0 -138.5 -68.5t-81 -150.5t-22.5 -156z" />
<glyph unicode="&#x3c0;" horiz-adv-x="1134" d="M-43 127q0 20 92 903q8 66 55.5 114t114.5 48h647q143 0 144 -131q0 -20 -92 -903q-16 -158 -177 -158q-143 0 -143 127q0 25 78 758h-322l-75 -727q-16 -158 -179 -158q-143 0 -143 127z" />
<glyph unicode="&#x3c1;" horiz-adv-x="1173" d="M-84 -289q0 16 10 107l84 786q27 270 186.5 445.5t407.5 175.5q229 0 344 -141.5t115 -378.5q0 -123 -33 -248t-93 -236.5t-163.5 -181.5t-232.5 -70q-90 0 -161 42t-101 122l-41 -393q-18 -160 -179 -160q-143 0 -143 131zM330 549q0 -123 53 -189.5t129 -66.5 q80 0 135 65.5t75.5 143.5t20.5 151q0 109 -39.5 184.5t-121.5 75.5q-90 0 -149.5 -62.5t-81 -140t-21.5 -161.5z" />
<glyph unicode="&#x3c2;" horiz-adv-x="1187" d="M29 492q0 291 203.5 506.5t486.5 215.5q127 0 244 -57q45 -20 71.5 -59t26.5 -80q-6 -76 -56.5 -128t-117.5 -52q-25 0 -96 22q-74 25 -115 25q-139 0 -225 -108.5t-86 -244.5q0 -61 18 -103t58 -66.5t71 -36t88 -25.5q319 -80 320 -301q0 -125 -76 -240.5t-189 -115.5 q-57 0 -96 43t-39 96q2 18 11.5 59t9.5 62q0 45 -62 90q-63 14 -100 26.5t-98.5 37t-99.5 58.5t-76.5 84t-57 125t-18.5 167z" />
<glyph unicode="&#x3c3;" d="M-29 526q0 289 171 488.5t448 199.5l497 -2q68 -4 112 -43t44 -100q-6 -74 -63.5 -126t-122.5 -52l-178 24q125 -172 125 -360q0 -236 -168 -404.5t-400 -168.5q-225 0 -345 157.5t-120 386.5zM301 561q0 -111 43 -190.5t129 -79.5q119 0 175.5 111.5t56.5 238.5 q0 111 -39 188.5t-123 77.5q-82 0 -139.5 -60.5t-80 -136t-22.5 -149.5z" />
<glyph unicode="&#x3c4;" horiz-adv-x="1069" d="M-12 1018q0 80 44 129t122 49h634q152 0 152 -129q0 -84 -49 -130t-131 -46h-162l-43 -416q-12 -123 -12 -133q0 -51 30 -51q162 0 162 -129q0 -84 -54 -131t-138 -47q-178 0 -250 78.5t-72 234.5q0 145 37 420q6 51 21 172h-150q-141 0 -141 129z" />
<glyph unicode="&#x3c5;" horiz-adv-x="1073" d="M-16 375q0 31 67 659q14 160 172 160q147 0 148 -131q0 -8 -6 -70q-20 -188 -56 -528q4 -70 39 -119t96 -49q68 0 116 48t56 120l62 569q18 160 176 160q147 0 147 -131q0 -16 -67 -641q-20 -188 -177 -316.5t-347 -128.5q-180 0 -303 112t-123 286z" />
<glyph unicode="&#x3c6;" horiz-adv-x="1546" d="M18 504q0 203 103.5 396.5t284.5 297.5q35 20 81 21q92 0 95 -82q0 -29 -14.5 -59.5t-28 -51t-45.5 -65.5q-49 -66 -75 -107t-53.5 -128t-27.5 -183q0 -80 31.5 -148.5t97.5 -97.5l37 360q10 90 38.5 180.5t82 177.5t143.5 141t203 54q197 0 301 -149.5t104 -353.5 q0 -268 -171 -469t-449 -246l-27 -254q-16 -162 -176 -162q-147 0 -147 133q0 14 4 39l24 246q-207 31 -311.5 172t-104.5 338zM786 285q115 37 189 149.5t74 247.5q0 92 -27 159.5t-84 67.5t-80 -53q-16 -39 -33 -203z" />
<glyph unicode="&#x3c7;" horiz-adv-x="1067" d="M-86 -283q6 51 35 99l373 626q-27 66 -105 238t-111 266q-12 45 -12 72q0 82 48 132t128 50q109 0 144 -98l102 -385l203 387q55 92 155 92q63 0 104.5 -41t41.5 -104q-6 -63 -33 -111l-344 -498q33 -82 131 -311t131 -311q14 -43 15 -74q0 -72 -50.5 -121t-119.5 -49 q-53 0 -96.5 31t-57.5 82l-141 469q-16 -29 -110.5 -229.5t-117.5 -243.5q-61 -113 -180 -113q-68 0 -100.5 41t-32.5 104z" />
<glyph unicode="&#x3c8;" horiz-adv-x="1427" d="M12 506q0 16 5.5 67.5t20.5 183.5t30 257q18 178 176 178q63 0 105 -43t42 -113q-14 -147 -28.5 -278t-19.5 -175t-5 -57q0 -197 104 -243l99 872q18 164 174 164q147 0 147 -131q0 -2 -6 -53.5t-31.5 -279.5t-62.5 -574q68 29 110.5 117.5t57.5 199.5l51 418 q20 176 178 176q63 0 105.5 -43t42.5 -115l-50 -424q-31 -254 -166 -425t-360 -199l-24 -226q-18 -186 -181 -186q-141 0 -141 150q0 25 27 262q-199 27 -299.5 167t-100.5 353z" />
<glyph unicode="&#x3c9;" horiz-adv-x="1394" d="M2 410q0 213 91 417.5t249 335.5q47 39 119 39q59 0 93 -36t34 -91q-6 -68 -53 -119q-209 -225 -209 -512q0 -70 24.5 -108.5t57.5 -38.5q31 0 55 35t31 96l24 227q18 170 141 170q102 0 103 -123q0 -23 -27 -274q0 -2 -1 -7t-1 -7v-13q0 -49 18.5 -76.5t45.5 -27.5 q49 0 79.5 59.5t39 115.5t8.5 106q0 209 -125 389q-25 59 -25 94q6 61 50 103t108 42q70 0 108 -39q201 -195 201 -549q0 -104 -25.5 -211.5t-75.5 -204t-137.5 -157.5t-195.5 -61q-80 0 -140.5 71.5t-74.5 194.5q-35 -115 -110.5 -189.5t-155.5 -74.5q-133 0 -228.5 119 t-95.5 305z" />
<glyph unicode="&#x3ca;" horiz-adv-x="743" d="M-152 1489q8 90 65.5 145.5t137.5 55.5q70 0 117 -47.5t47 -116.5q-8 -88 -65.5 -144.5t-135.5 -56.5q-74 0 -120 47t-46 117zM-8 256q0 31 78 762q14 158 176 158q150 0 149 -132q0 -2 -1 -7t-2 -20.5t-3 -33.5l-65 -643q0 -49 30 -49q160 0 160 -131q0 -82 -54 -129 t-136 -47q-332 0 -332 272zM358 1489q8 88 64.5 144.5t134.5 56.5q74 0 119 -46.5t45 -115.5q-8 -90 -64.5 -146.5t-136.5 -56.5q-70 0 -116 47t-46 117z" />
<glyph unicode="&#x3cb;" horiz-adv-x="1073" d="M-78 375q0 -174 123 -286t303 -112q190 0 347 128t177 317q68 625 68 641q0 131 -147 131q-158 0 -177 -160l-61 -569q-8 -72 -56 -120t-116 -48q-61 0 -96 49t-39 119q35 340 55 528q6 61 6 70q0 131 -147 131q-158 0 -172 -160q-68 -628 -68 -659zM80 1489 q8 90 65.5 145.5t137.5 55.5q70 0 116.5 -47.5t46.5 -116.5q-8 -88 -65 -144.5t-135 -56.5q-74 0 -120 47t-46 117zM590 1489q8 88 64.5 144.5t133.5 56.5q74 0 119 -46.5t45 -115.5q-8 -90 -64.5 -146.5t-135.5 -56.5q-70 0 -116 47t-46 117z" />
<glyph unicode="&#x3cc;" horiz-adv-x="1198" d="M-31 516q0 283 170 496t432 213q227 0 350 -160t123 -389q0 -283 -163.5 -488.5t-438.5 -205.5q-227 0 -350 153.5t-123 380.5zM299 559q0 -117 43 -204t129 -87q82 0 140.5 65.5t81 144.5t22.5 155q0 119 -43 210t-131 91q-80 0 -138.5 -68.5t-81 -150.5t-22.5 -156z M489 1450q0 53 27 96l150 279q57 106 159 106q139 0 140 -129q0 -45 -21 -86l-151 -276q-20 -37 -34 -57.5t-46.5 -41t-77.5 -20.5q-74 0 -110 35t-36 94z" />
<glyph unicode="&#x3cd;" horiz-adv-x="1056" d="M-16 375q0 31 67 659q14 160 172 160q147 0 148 -131q0 -8 -6 -70q-20 -188 -56 -528q4 -70 39 -119t96 -49q68 0 116 48t56 120l62 569q18 160 176 160q147 0 147 -131q0 -16 -67 -641q-20 -188 -177 -316.5t-347 -128.5q-180 0 -303 112t-123 286zM418 1450q0 53 26 96 l150 279q57 106 160 106q139 0 139 -129q0 -45 -21 -86l-151 -276q-20 -37 -33.5 -57.5t-46.5 -41t-78 -20.5q-74 0 -109.5 35t-35.5 94z" />
<glyph unicode="&#x3ce;" horiz-adv-x="1394" d="M2 410q0 213 91 417.5t249 335.5q47 39 119 39q59 0 93 -36t34 -91q-6 -68 -53 -119q-209 -225 -209 -512q0 -70 24.5 -108.5t57.5 -38.5q31 0 55 35t31 96l24 227q18 170 141 170q102 0 103 -123q0 -23 -27 -274q0 -2 -1 -7t-1 -7v-13q0 -49 18.5 -76.5t45.5 -27.5 q49 0 79.5 59.5t39 115.5t8.5 106q0 209 -125 389q-25 59 -25 94q6 61 50 103t108 42q70 0 108 -39q201 -195 201 -549q0 -104 -25.5 -211.5t-75.5 -204t-137.5 -157.5t-195.5 -61q-80 0 -140.5 71.5t-74.5 194.5q-35 -115 -110.5 -189.5t-155.5 -74.5q-133 0 -228.5 119 t-95.5 305zM575 1450q0 53 27 96l150 279q57 106 159 106q139 0 140 -129q0 -45 -21 -86l-151 -276q-20 -37 -34 -57.5t-46.5 -41t-77.5 -20.5q-74 0 -110 35t-36 94z" />
<glyph unicode="&#x2000;" horiz-adv-x="1003" />
<glyph unicode="&#x2001;" horiz-adv-x="2009" />
<glyph unicode="&#x2002;" horiz-adv-x="1003" />
<glyph unicode="&#x2003;" horiz-adv-x="2009" />
<glyph unicode="&#x2004;" horiz-adv-x="669" />
<glyph unicode="&#x2005;" horiz-adv-x="501" />
<glyph unicode="&#x2006;" horiz-adv-x="333" />
<glyph unicode="&#x2007;" horiz-adv-x="333" />
<glyph unicode="&#x2008;" horiz-adv-x="249" />
<glyph unicode="&#x2009;" horiz-adv-x="401" />
<glyph unicode="&#x200a;" horiz-adv-x="110" />
<glyph unicode="&#x2010;" horiz-adv-x="800" d="M0 565q0 82 55.5 137.5t132.5 55.5h375q156 0 156 -137q0 -88 -52.5 -136.5t-136.5 -48.5h-374q-156 0 -156 129z" />
<glyph unicode="&#x2011;" horiz-adv-x="800" d="M0 565q0 82 55.5 137.5t132.5 55.5h375q156 0 156 -137q0 -88 -52.5 -136.5t-136.5 -48.5h-374q-156 0 -156 129z" />
<glyph unicode="&#x2012;" horiz-adv-x="800" d="M0 565q0 82 55.5 137.5t132.5 55.5h375q156 0 156 -137q0 -88 -52.5 -136.5t-136.5 -48.5h-374q-156 0 -156 129z" />
<glyph unicode="&#x2013;" horiz-adv-x="1474" d="M16 563q0 84 55.5 139.5t133.5 55.5h921q156 0 156 -137q0 -88 -52 -136.5t-136 -48.5h-922q-156 0 -156 127z" />
<glyph unicode="&#x2014;" horiz-adv-x="1900" d="M33 563q0 84 55 139.5t133 55.5h1282q156 0 156 -137q0 -88 -51.5 -136.5t-137.5 -48.5h-1282q-155 0 -155 127z" />
<glyph unicode="&#x2018;" horiz-adv-x="520" d="M68 1395q6 72 59 118t119 46q96 0 129 -93l100 -309q14 -27 14 -47q0 -68 -56 -122t-122 -54q-53 0 -91 35t-54 84l-92 297q-6 22 -6 45z" />
<glyph unicode="&#x2019;" horiz-adv-x="520" d="M33 1077q2 39 30 78l164 311q47 92 148 93q61 0 104 -39t43 -99q-2 -47 -22 -78l-148 -290q-25 -47 -73 -83t-101 -36q-51 0 -98 44t-47 99z" />
<glyph unicode="&#x201a;" horiz-adv-x="520" d="M-90 -104q2 43 20 75l152 293q25 49 73 82t101 33t97 -40t44 -95q-2 -49 -26 -82l-166 -314q-55 -90 -148 -90q-61 0 -104 39.5t-43 98.5z" />
<glyph unicode="&#x201c;" horiz-adv-x="1015" d="M82 1407q6 63 58.5 107.5t117.5 44.5q98 0 131 -93l100 -309q12 -23 13 -70q-6 -57 -64.5 -105t-113.5 -48q-51 0 -90 36t-54 83l-90 297q-8 28 -8 57zM537 1407q6 66 57 109t117 43q100 0 133 -93l100 -309q10 -23 10 -70q-6 -57 -64.5 -105t-113.5 -48q-51 0 -89 36 t-52 83l-92 297q-6 18 -6 57z" />
<glyph unicode="&#x201d;" horiz-adv-x="1009" d="M47 1077q2 37 29 78l164 311q53 92 147 93q61 0 105.5 -39t44.5 -99q-2 -41 -23 -78l4 7l-153 -297q-27 -47 -73 -83t-102 -36q-49 0 -96 44t-47 99zM502 1077q2 41 26 78l164 311q53 92 148 93q61 0 105 -39t44 -99q-2 -41 -22 -78l4 7l-154 -297q-25 -47 -72 -83 t-102 -36q-49 0 -95 44t-46 99z" />
<glyph unicode="&#x201e;" horiz-adv-x="991" d="M-78 -106q2 41 23 77l151 293q25 47 74 82t100.5 35t95.5 -42t44 -97q-2 -45 -25 -80l-168 -314q-51 -90 -147 -90q-59 0 -103.5 39.5t-44.5 96.5zM358 -106q2 47 23 77l149 293q25 49 75 82t102 33q53 0 96 -40t43 -95q-2 -49 -27 -82l-166 -314q-51 -90 -149 -90 q-59 0 -102.5 39.5t-43.5 96.5z" />
<glyph unicode="&#x2020;" horiz-adv-x="1155" d="M51 1008q0 86 48 136t128 50h176l19 176q8 80 61.5 130t118.5 50q139 0 139 -145q0 -23 -20 -211h180q145 0 146 -133q0 -82 -49.5 -132t-129.5 -50h-180l-74 -699q-18 -180 -174 -180q-61 0 -103 42t-42 114q0 4 6 65q27 252 70 658h-176q-144 0 -144 129z" />
<glyph unicode="&#x2021;" horiz-adv-x="1155" d="M-2 496q0 88 48 138t128 50h176l21 195h-176q-143 0 -144 129q0 88 48 138t128 50h176l19 174q8 84 60.5 132t119.5 48q139 0 139 -143q0 -25 -20 -211h180q145 0 146 -133q0 -84 -48.5 -134t-130.5 -50h-180l-20 -195h180q143 0 143 -129q0 -88 -48 -137t-130 -49h-180 l-21 -195q-18 -180 -174 -180q-61 0 -103 42t-42 114v3v4q0 3 1 8t2 13t2 18.5t3 27t4 37t4 48t6 60.5h-176q-141 0 -141 127z" />
<glyph unicode="&#x2022;" horiz-adv-x="1187" d="M121 672q0 193 135 323.5t317 130.5q164 0 263.5 -99t99.5 -257q0 -193 -133 -326t-316 -133q-166 0 -266 100.5t-100 260.5z" />
<glyph unicode="&#x2026;" horiz-adv-x="1413" d="M-37 164q8 88 65.5 144.5t135.5 56.5q70 0 117 -47.5t47 -116.5q-8 -88 -65.5 -144.5t-135.5 -56.5q-72 0 -118 47t-46 117zM436 164q8 88 65.5 144.5t135.5 56.5q70 0 117 -47.5t47 -116.5q-8 -88 -65.5 -144.5t-135.5 -56.5q-72 0 -118 47t-46 117zM913 164 q8 88 64.5 144.5t134.5 56.5q72 0 118 -47.5t46 -116.5q-8 -88 -65.5 -144.5t-135.5 -56.5q-70 0 -116 47t-46 117z" />
<glyph unicode="&#x202f;" horiz-adv-x="401" />
<glyph unicode="&#x2030;" horiz-adv-x="2906" d="M115 1096q0 195 130 331t312 136q164 0 257 -105.5t93 -267.5q0 -199 -128 -341t-312 -142q-164 0 -258 112.5t-94 276.5zM422 1110q0 -49 18.5 -83t55.5 -34q57 0 83.5 54.5t26.5 113.5q0 49 -20.5 83t-59.5 34q-53 0 -78.5 -56.5t-25.5 -111.5zM535 86q0 45 26 98 l629 1276q57 113 168 113q129 0 129 -121q0 -59 -21 -106q-66 -137 -343 -693.5t-312 -607.5q-55 -84 -143 -84q-133 0 -133 125zM1124 354q0 201 129 338t316 137q162 0 253 -109.5t91 -268.5q0 -197 -126 -336.5t-308 -139.5q-168 0 -261.5 107.5t-93.5 271.5zM1427 381 q0 -51 20.5 -86t61.5 -35q53 0 79 53.5t26 110.5q0 49 -19.5 85t-56.5 36q-53 0 -82 -55.5t-29 -108.5zM1966 354q0 199 129 337t315 138q164 0 255.5 -109.5t91.5 -268.5q0 -197 -126 -336.5t-311 -139.5q-166 0 -260 107.5t-94 271.5zM2271 383q0 -51 20.5 -87t59.5 -36 q53 0 80 53.5t27 108.5q0 49 -20.5 86t-57.5 37q-45 0 -77 -47t-32 -115z" />
<glyph unicode="&#x2039;" horiz-adv-x="1396" d="M14 575q0 125 133 185l875 387q51 23 96 22q33 0 64 -12q76 -35 75 -115q-10 -121 -131 -178l-669 -266l596 -289q102 -49 102 -143q0 -76 -47 -121t-121 -45q-59 0 -106 25l-770 403q-97 49 -97 147z" />
<glyph unicode="&#x203a;" horiz-adv-x="1396" d="M-29 127q0 131 109 182l684 277l-610 284q-92 51 -93 142q14 166 172 166q37 0 72 -15l793 -411q115 -61 114 -150q-12 -123 -168 -194l-854 -392q-35 -14 -75 -14q-144 0 -144 125z" />
<glyph unicode="&#x205f;" horiz-adv-x="501" />
<glyph unicode="&#x20ac;" horiz-adv-x="1589" d="M-33 639q0 78 46 105.5t128 27.5h23l4 31q4 37 8 57h-24q-84 0 -118 15.5t-34 70.5q0 78 46 105.5t128 27.5h59q96 248 297 405.5t478 157.5q270 0 448 -178q49 -51 49 -123q-8 -88 -59 -137t-121 -49q-78 0 -121 49q-84 96 -239 96q-238 0 -367 -221h444q84 0 118 -16 t34 -72q0 -78 -45 -104.5t-129 -26.5h-502l-10 -88h276q82 0 117 -15.5t35 -70.5q0 -80 -45 -106.5t-129 -26.5h-219q84 -223 321 -223q160 0 256 88q55 49 117 49q76 0 112.5 -40t36.5 -103q0 -100 -77 -164q-223 -182 -488 -183q-281 0 -446.5 161t-202.5 415h-53 q-84 0 -118 15.5t-34 70.5z" />
<glyph unicode="&#x2122;" horiz-adv-x="1636" d="M104 1411q0 66 37 105.5t101 39.5h338q117 0 116 -104q0 -66 -37.5 -104.5t-103.5 -38.5h-43l-51 -488q-14 -135 -139 -135q-113 0 -113 107q0 18 53 516h-45q-113 0 -113 102zM616 793q0 6 160 641q35 135 160 135q119 0 139 -115l33 -287l98 289q45 113 164 113 q57 0 94 -36t39 -99l29 -609q-14 -131 -137 -131q-109 0 -115 113v344q-80 -328 -92 -358q-43 -102 -131 -102.5t-115 104.5l-18 344l-60 -330q-29 -117 -139 -117q-109 1 -109 101z" />
<glyph unicode="&#x2126;" horiz-adv-x="1505" d="M23 133q0 88 49 141.5t129 53.5h919q145 0 146 -138q0 -86 -48.5 -138t-130.5 -52h-919q-145 0 -145 133zM100 975q0 287 204 475t491 188q279 0 429 -155.5t150 -378.5q0 -287 -210 -471t-494 -184q-274 0 -422 152.5t-148 373.5zM430 1012q0 -100 71.5 -170t207.5 -70 q137 0 237.5 84t100.5 211q0 102 -75 175t-208 73q-137 0 -235.5 -88t-98.5 -215z" />
<glyph unicode="&#x2206;" horiz-adv-x="1429" d="M-43 119q0 39 25 96l-5 -6l586 1239q68 150 209 149q156 0 184 -147l340 -1239q6 -31 7 -57q-14 -154 -224 -154h-952q-170 0 -170 119zM391 340h514l-192 692z" />
<glyph unicode="&#xe000;" horiz-adv-x="1195" d="M0 1195h1195v-1195h-1195v1195z" />
<glyph horiz-adv-x="1245" d="M-31 539q0 190 74 358t216 277.5t323 113.5h8q229 0 349 -159.5t120 -393.5q0 -186 -70.5 -357t-214 -286t-328.5 -115q-158 0 -268 81t-159.5 205t-49.5 276zM299 573q0 -117 47 -194.5t135 -77.5q84 0 143.5 71.5t82 156.5t22.5 161q0 115 -46 194t-130 79 q-86 0 -147.5 -71t-84 -155t-22.5 -164z" />
<glyph horiz-adv-x="821" d="M-20 1020q0 66 45 116t108 66q51 12 95 24.5t73 19.5t52.5 14.5t36.5 10.5t22.5 6t14.5 4t8 2t7 1q53 0 88 -27.5t48 -66.5q6 -12 6 -49q0 -27 -99 -971q-8 -74 -57 -122t-123 -48q-70 0 -110.5 41t-40.5 106q0 2 4 41q27 242 75 723q-16 -6 -71 -20q-14 -2 -41 -2 q-59 0 -100 36t-41 95z" />
<glyph horiz-adv-x="1185" d="M2 131q0 80 68 160q295 231 414.5 332.5t155.5 145.5t40 87q0 57 -38 90t-93 33q-59 0 -106.5 -41t-55.5 -113q-8 -61 -57 -119.5t-123 -58.5t-112 54.5t-38 132.5q23 209 180.5 337.5t350.5 128.5q174 0 301 -109.5t127 -281.5q0 -76 -30 -151.5t-64.5 -129t-105.5 -121 t-106.5 -97t-113.5 -91.5h223q141 0 142 -129q0 -86 -48.5 -138t-128.5 -52h-606q-176 0 -176 131z" />
<glyph horiz-adv-x="1134" d="M-39 68q0 78 49 135t123 57q45 0 86 -27.5t57 -74.5q37 -119 140 -119q82 0 137 57.5t55 134.5q0 61 -29.5 113.5t-89.5 61.5h-67q-82 0 -121 26.5t-39 87.5q0 160 193 160q39 0 61 4q49 20 79 80.5t30 116.5q0 53 -31 83.5t-86 30.5q-119 0 -146 -102q-2 -18 -14 -41 t-45 -46.5t-78 -23.5q-158 0 -157 123q0 172 153.5 291t327.5 119q182 0 292.5 -115t110.5 -272q0 -115 -59 -208t-156 -153q197 -113 197 -334q0 -219 -169 -370.5t-380 -151.5q-127 0 -226.5 57.5t-154.5 145.5q-43 72 -43 154z" />
<glyph horiz-adv-x="1239" d="M-33 262q0 84 58 146l550 759q96 129 232 129q84 0 136 -51t52 -139q0 -20 -71 -678q139 -4 139 -131q0 -86 -46 -136t-124 -50l-19 -170q-18 -178 -182 -179q-68 0 -106.5 38t-38.5 110q0 20 20 196h-430q-82 0 -126 44t-44 112zM410 428h190l33 307z" />
<glyph horiz-adv-x="1239" d="M-51 -2q8 82 56 127t110 45q78 0 123 -70q27 -39 80 -64.5t108 -25.5q96 0 161.5 76t65.5 168q0 78 -48 133t-138 55q-35 0 -94.5 -15t-89.5 -15q-150 0 -150 127q0 20 1 31.5t4 26.5t14.5 51t26 83t44 146.5t64.5 218.5q20 70 73.5 109.5t131.5 39.5h430q68 0 105.5 -43 t37.5 -108q-8 -92 -52 -135.5t-126 -43.5h-340q-14 -70 -41 -157q238 0 359.5 -130t121.5 -325q0 -252 -178 -432t-424 -180q-180 0 -308 99t-128 208z" />
<glyph horiz-adv-x="1173" d="M-6 477q0 502 592 1010q68 49 127 49q68 0 109.5 -38t41.5 -105q-6 -82 -61 -131q-6 -6 -60.5 -49.5t-74 -60.5t-59.5 -55t-66.5 -73t-46.5 -74q61 31 170 31q170 0 258 -112.5t88 -278.5q0 -246 -170 -429.5t-402 -183.5q-217 0 -331.5 142.5t-114.5 357.5zM317 496 q0 -82 42 -140.5t116 -60.5q86 8 144.5 75.5t68.5 155.5q0 92 -42 150.5t-130 58.5q-92 0 -145.5 -73.5t-53.5 -165.5z" />
<glyph horiz-adv-x="1146" d="M14 1081q0 92 53.5 142.5t143.5 50.5h645q66 0 111 -45t45 -115q-6 -61 -27 -100l-604 -1145q-68 -129 -186 -129q-72 0 -106 40t-34 99q0 49 31 107l510 956h-420q-162 0 -162 139z" />
<glyph horiz-adv-x="1140" d="M-27 422q0 131 69 245.5t181 176.5q-59 39 -93 110.5t-34 153.5q0 193 153.5 329t342.5 136q176 0 285.5 -104.5t109.5 -272.5q0 -106 -53 -196.5t-137 -143.5q74 -37 126 -135t52 -203q0 -217 -170 -379t-379 -162q-205 0 -329 124t-124 321zM313 463q0 -70 40 -114 t108 -44q78 0 129 64.5t51 140.5q0 72 -40 119t-101 47q-82 0 -134.5 -66.5t-52.5 -146.5zM424 1112q0 -51 26.5 -85t75.5 -34q47 0 83 43t42 99q0 59 -26.5 88.5t-67.5 29.5q-59 0 -96 -42t-37 -99z" />
<glyph horiz-adv-x="1179" d="M-25 688q0 248 174.5 422t409.5 174q213 0 334 -141.5t121 -364.5q0 -307 -176 -583.5t-449 -483.5q-53 -39 -117 -39q-61 0 -101 39t-40 96q10 98 84 154q229 172 348 326q-102 -35 -196 -35q-186 0 -289 130t-103 306zM303 682q0 -88 48 -138t120 -50q102 0 162.5 76.5 t60.5 179.5q0 84 -45 142t-133 58q-98 0 -155.5 -85t-57.5 -183z" />
<glyph horiz-adv-x="1392" d="M-31 133q0 45 27 98l498 854q68 139 204 140q139 0 176 -138l336 -858q10 -35 11 -55q0 -76 -49.5 -125t-122.5 -49q-115 0 -140 100l-73 176h-463l-90 -153l2 6q-55 -129 -181 -129q-68 0 -101.5 38t-33.5 95zM543 561h182q-45 125 -76 184z" />
<glyph horiz-adv-x="1175" d="M-37 150q0 20 90 874q18 178 185 178h331q170 0 282 -73.5t112 -223.5q0 -147 -101 -248q66 -43 104 -113.5t38 -142.5q0 -174 -143.5 -282.5t-325.5 -118.5h-392q-96 0 -129 31q-51 35 -51 119zM297 315h215q63 0 101 28t42 65q0 94 -149 94h-191zM340 725h188 q55 0 87 24.5t36 59.5q0 80 -84 80h-211z" />
<glyph horiz-adv-x="1294" d="M23 528q0 301 210.5 504t507.5 203q258 0 430 -174q51 -51 52 -115q0 -74 -52.5 -128t-123.5 -54q-76 0 -115 49q-82 88 -230 88q-145 0 -243.5 -93t-98.5 -230q0 -125 78 -199t203 -74q135 0 246 94q47 47 112 47q72 0 108 -36.5t36 -94.5q0 -100 -76 -161 q-215 -172 -467 -172q-262 0 -419.5 151t-157.5 395z" />
<glyph horiz-adv-x="1218" d="M-35 117q0 31 92 907q18 178 215 178h363q217 0 359.5 -138t142.5 -382q0 -301 -189.5 -490.5t-474.5 -191.5h-354q-86 0 -120 22.5t-34 94.5zM301 315h195q145 0 228 93.5t83 236.5q0 123 -65.5 183.5t-161.5 60.5h-220z" />
<glyph horiz-adv-x="993" d="M-45 109q0 16 94 921q18 172 182 172h553q145 0 146 -125q0 -90 -48 -139t-130 -49h-404l-14 -146h317q76 0 112 -24.5t36 -85.5q0 -162 -176 -162h-318l-16 -156h420q156 0 155 -131q0 -86 -52 -135t-136 -49h-570q-88 0 -119.5 23t-31.5 86z" />
<glyph horiz-adv-x="909" d="M-47 121q0 4 8 78q33 313 86 825q18 178 182 178h539q145 0 145 -127q0 -88 -48 -137t-130 -49h-387l-20 -191h270q143 0 143 -129q0 -88 -48 -138t-128 -50h-270l-25 -236q-16 -145 -174 -145q-143 0 -143 121z" />
<glyph horiz-adv-x="1478" d="M18 524q0 270 202 485.5t487 215.5q119 0 234.5 -49.5t197.5 -145.5q23 -37 22 -78q-6 -59 -61.5 -105t-118.5 -46q-51 0 -92 28q-88 88 -219 89q-133 0 -229.5 -106.5t-96.5 -250.5q0 -123 83 -201.5t196 -78.5q172 0 266 176h-187q-113 0 -112 116q4 53 44 95.5 t99 42.5l334 -2q92 -6 127 -42t35 -106q0 -8 -4 -61q-23 -217 -202 -367.5t-452 -150.5q-246 0 -399.5 161.5t-153.5 380.5z" />
<glyph horiz-adv-x="1175" d="M-39 127q0 20 94 922q18 160 174 159q143 0 144 -127q0 -20 -31 -309h387l29 277q18 160 176 159q143 0 143 -129q0 -20 -94 -921q-16 -158 -176 -158q-143 0 -143 127q0 20 32 328h-387l-30 -297q-18 -158 -175 -158q-143 0 -143 127z" />
<glyph horiz-adv-x="346" d="M-72 129q0 20 95 918q18 160 174 159q143 0 143 -127q0 -23 -94 -919q-18 -160 -174 -160q-144 0 -144 129z" />
<glyph horiz-adv-x="862" d="M-45 193q18 178 172 178q43 0 119 -60q41 -25 80 -24q35 0 58.5 20.5t25.5 54.5l71 685q18 160 174 159q145 0 146 -129q0 -20 -74 -715q-18 -176 -139 -281.5t-297 -105.5t-295 115q-41 40 -41 103z" />
<glyph horiz-adv-x="1210" d="M-37 123q0 4 8 80q35 328 90 864q14 145 172 145q145 0 146 -120q0 4 -37 -363l530 434q61 47 109 47q61 0 104 -45t43 -106q-6 -82 -57 -123l-352 -272l311 -388q43 -41 43 -110q-8 -74 -70.5 -121t-107.5 -47q-33 0 -56.5 9t-34.5 19.5t-30 32.5l-315 383l-160 -127 l-18 -168q-16 -147 -170 -147q-148 0 -148 123z" />
<glyph horiz-adv-x="1040" d="M-37 158q0 25 90 891q18 160 174 159q143 0 144 -127q0 -20 -78 -766h491q145 0 146 -129q0 -86 -48 -136t-130 -50h-627q-162 0 -162 158z" />
<glyph horiz-adv-x="1710" d="M-20 133q0 39 12 66l264 821q66 205 227 205q74 0 125 -48.5t70 -134.5l94 -464q33 72 100.5 236.5t96.5 227.5q82 180 233 181q176 0 182 -205l82 -852q-2 -84 -50 -124t-124 -40q-137 0 -147 145l-39 508q-33 -74 -109.5 -254t-115.5 -264q-66 -137 -174 -137 q-117 0 -146 137l-108 520q-27 -82 -79 -256t-75 -245q-18 -80 -59 -117t-117 -37q-66 0 -104.5 34t-38.5 97z" />
<glyph horiz-adv-x="1232" d="M-37 129q0 23 96 924q16 172 172 172q102 0 160 -103l383 -532l49 473q16 160 170 160q145 0 146 -133q0 -4 -9 -80q-35 -319 -88 -838q-18 -172 -174 -172q-98 0 -153 88l-387 533l-47 -459q-18 -162 -175 -162q-143 0 -143 129z" />
<glyph horiz-adv-x="1402" d="M14 528q0 283 208 483.5t485 200.5q246 0 401.5 -154.5t155.5 -391.5q0 -281 -205 -481.5t-481 -200.5q-260 0 -412 155.5t-152 388.5zM338 571q0 -117 75.5 -195.5t200.5 -78.5q137 0 228.5 100.5t91.5 231.5q0 115 -71.5 191.5t-188.5 76.5q-143 0 -239.5 -95.5 t-96.5 -230.5z" />
<glyph horiz-adv-x="1087" d="M-39 127q0 20 94 913q18 164 183 164h368q205 0 311.5 -110.5t106.5 -270.5q0 -213 -147.5 -352t-350.5 -141h-233l-17 -170q-18 -160 -174 -160q-141 0 -141 127zM328 645h225q143 0 154 129q0 51 -38 84t-120 33h-197z" />
<glyph horiz-adv-x="1564" d="M14 528q0 283 208 483.5t485 200.5q246 0 401.5 -154.5t155.5 -391.5q0 -231 -136 -408q2 -4 11.5 -14.5t11.5 -14.5q33 -43 33 -92q-6 -76 -51.5 -124t-116.5 -48q-63 0 -103 43l-36 41q-137 -66 -299 -65q-260 0 -412 155.5t-152 388.5zM338 571q0 -117 75.5 -195.5 t200.5 -78.5q25 0 37 2q-35 59 -35 104q0 68 58.5 121.5t124.5 53.5q51 0 119 -64q18 66 18 111q0 117 -72.5 194.5t-189.5 77.5q-143 0 -239.5 -95.5t-96.5 -230.5z" />
<glyph horiz-adv-x="1091" d="M-41 139q0 23 96 920q18 164 211 164h275q221 0 345 -89.5t124 -269.5q0 -127 -57.5 -229.5t-161.5 -161.5q12 -23 51 -94.5t57 -108.5q39 -49 39 -104q0 -82 -49 -125t-129 -43q-76 0 -135 86l-166 291h-160l-23 -201q-18 -174 -174 -174q-143 0 -143 139zM332 688h229 q55 0 92 35t41 80q0 47 -27.5 75.5t-82.5 28.5h-230z" />
<glyph horiz-adv-x="1019" d="M-20 215q6 76 53 114t108 38q57 0 152.5 -56.5t179.5 -56.5q100 0 109 74q-8 33 -65.5 69.5t-131.5 76.5t-147.5 87t-124 120t-50.5 157q18 180 160 282.5t332 102.5q182 0 319 -76q70 -41 70 -119q-6 -63 -47 -103t-109 -40q-51 0 -145 30.5t-158 30.5q-94 0 -102 -74 q0 -37 55.5 -75.5t133 -76.5t155.5 -83t133 -115.5t55 -156.5q0 -188 -154.5 -285.5t-350.5 -97.5q-199 0 -379 120q-51 35 -51 113z" />
<glyph horiz-adv-x="1077" d="M53 1018q0 86 49.5 135t133.5 49h671q145 0 146 -127q0 -88 -48.5 -137t-130.5 -49h-178l-75 -721q-18 -168 -175 -168q-145 0 -145 137q0 20 78 752h-176q-150 0 -150 129z" />
<glyph horiz-adv-x="1204" d="M6 483q0 61 51 553q18 170 183 170q150 0 149 -137q0 -90 -24.5 -263t-24.5 -259q0 -238 184 -238q94 0 152.5 71t77.5 247l43 409q18 170 182 170q154 0 154 -139q0 -20 -48 -457q-66 -629 -610 -628q-215 0 -342 118.5t-127 382.5z" />
<glyph horiz-adv-x="1216" d="M57 1028q0 84 49.5 134t131.5 50q115 0 143 -116l149 -615q51 98 146.5 317.5t134.5 301.5q55 111 162 110q59 0 106 -47t47 -106q-2 -37 -22 -74l-416 -813q-86 -170 -207 -170q-115 0 -162 154l-258 835q-4 25 -4 39z" />
<glyph horiz-adv-x="1759" d="M80 1028v39q8 72 59 115t117 43q135 0 147 -144l54 -549l215 560q51 133 194 133q145 0 168 -133l88 -547q29 84 85.5 279.5t76.5 256.5q45 147 182 148q61 0 104.5 -41t43.5 -103q0 -4 -15 -63l-296 -860q-25 -72 -86.5 -117t-135.5 -45q-70 0 -123 38t-63 116 q-23 117 -45.5 244.5t-46.5 256.5l-191 -479q-37 -88 -99 -134t-130 -46q-72 0 -124 49t-62 129z" />
<glyph horiz-adv-x="1120" d="M-41 123q0 82 66 162l315 329l-209 314q-27 39 -27 88q0 72 54.5 124t124.5 52q94 0 139 -80l119 -252l178 256q53 78 151 78q63 0 104.5 -40t41.5 -101q-6 -74 -53 -125l-275 -303l246 -332q37 -49 37 -115q0 -82 -45 -130t-119 -48q-109 0 -158 94l-170 281l-227 -285 q-72 -86 -162 -86q-131 0 -131 119z" />
<glyph horiz-adv-x="1157" d="M57 1040q0 80 47.5 129.5t120.5 49.5q90 0 127 -84l193 -461q47 66 143 232.5t137 226.5q61 86 154 86q137 0 137 -123q0 -63 -33 -111l-417 -602l-23 -213q-18 -170 -176 -170q-145 0 -145 137q0 20 24 252l-274 584q-15 28 -15 67z" />
<glyph horiz-adv-x="1175" d="M-39 135q0 88 51 156l561 600h-348q-147 0 -147 129q0 84 49 134t131 50h641q168 0 168 -129q-8 -82 -70 -162l-559 -598h414q147 0 147 -127q0 -86 -49 -137t-131 -51h-719q-139 0 -139 135z" />
<glyph horiz-adv-x="1392" d="M-31 133q0 45 27 98l498 854q68 139 204 140q139 0 176 -138l336 -858q10 -35 11 -55q0 -76 -49.5 -125t-122.5 -49q-115 0 -140 100l-73 176h-463l-90 -153l2 6q-55 -129 -181 -129q-68 0 -101.5 38t-33.5 95zM543 561h182q-45 125 -76 184z" />
<glyph horiz-adv-x="1175" d="M-37 150q0 20 90 874q18 178 185 178h331q170 0 282 -73.5t112 -223.5q0 -147 -101 -248q66 -43 104 -113.5t38 -142.5q0 -174 -143.5 -282.5t-325.5 -118.5h-392q-96 0 -129 31q-51 35 -51 119zM297 315h215q63 0 101 28t42 65q0 94 -149 94h-191zM340 725h188 q55 0 87 24.5t36 59.5q0 80 -84 80h-211z" />
<glyph horiz-adv-x="993" d="M-43 127q0 23 92 895q18 178 182 178h576q68 0 106.5 -42t38.5 -103q-14 -170 -178 -170h-424l-76 -725q-18 -160 -176 -160q-141 0 -141 127z" />
<glyph horiz-adv-x="1429" d="M-33 115q0 39 23 92l493 880q78 137 201 138q145 0 174 -146l322 -872q8 -25 8 -49q0 -84 -62.5 -121t-150.5 -37h-844q-164 0 -164 115zM424 322h342l-131 389z" />
<glyph horiz-adv-x="993" d="M-45 109q0 16 94 921q18 172 182 172h553q145 0 146 -125q0 -90 -48 -139t-130 -49h-404l-14 -146h317q76 0 112 -24.5t36 -85.5q0 -162 -176 -162h-318l-16 -156h420q156 0 155 -131q0 -86 -52 -135t-136 -49h-570q-88 0 -119.5 23t-31.5 86z" />
<glyph horiz-adv-x="1175" d="M-39 135q0 88 51 156l561 600h-348q-147 0 -147 129q0 84 49 134t131 50h641q168 0 168 -129q-8 -82 -70 -162l-559 -598h414q147 0 147 -127q0 -86 -49 -137t-131 -51h-719q-139 0 -139 135z" />
<glyph horiz-adv-x="1175" d="M-39 127q0 20 94 922q18 160 174 159q143 0 144 -127q0 -20 -31 -309h387l29 277q18 160 176 159q143 0 143 -129q0 -20 -94 -921q-16 -158 -176 -158q-143 0 -143 127q0 20 32 328h-387l-30 -297q-18 -158 -175 -158q-143 0 -143 127z" />
<glyph horiz-adv-x="1374" d="M14 528q0 283 208 483.5t485 200.5q246 0 401.5 -154.5t155.5 -391.5q0 -281 -205 -481.5t-481 -200.5q-260 0 -412 155.5t-152 388.5zM338 571q0 -117 75.5 -195.5t200.5 -78.5q137 0 228.5 100.5t91.5 231.5q0 115 -71.5 191.5t-188.5 76.5q-143 0 -239.5 -95.5 t-96.5 -230.5zM438 569q0 84 48.5 134.5t127.5 52.5h76q145 0 146 -133q0 -84 -48.5 -133.5t-130.5 -51.5h-75q-144 0 -144 131z" />
<glyph horiz-adv-x="409" d="M-72 129q0 20 95 918q18 160 174 159q143 0 143 -127q0 -23 -94 -919q-18 -160 -174 -160q-144 0 -144 129z" />
<glyph horiz-adv-x="1210" d="M-37 123q0 4 8 80q35 328 90 864q14 145 172 145q145 0 146 -120q0 4 -37 -363l530 434q61 47 109 47q61 0 104 -45t43 -106q-6 -82 -57 -123l-352 -272l311 -388q43 -41 43 -110q-8 -74 -70.5 -121t-107.5 -47q-33 0 -56.5 9t-34.5 19.5t-30 32.5l-315 383l-160 -127 l-18 -168q-16 -147 -170 -147q-148 0 -148 123z" />
<glyph horiz-adv-x="1349" d="M-31 133q0 45 27 98l498 854q68 139 204 140q139 0 176 -138l336 -858q10 -35 11 -55q0 -76 -49.5 -125t-122.5 -49q-115 0 -140 100l-260 648l-364 -623q-63 -125 -181 -125q-68 0 -101.5 38t-33.5 95z" />
<glyph horiz-adv-x="1710" d="M-20 133q0 39 12 66l264 821q66 205 227 205q74 0 125 -48.5t70 -134.5l94 -464q33 72 100.5 236.5t96.5 227.5q82 180 233 181q176 0 182 -205l82 -852q-2 -84 -50 -124t-124 -40q-137 0 -147 145l-39 508q-33 -74 -109.5 -254t-115.5 -264q-66 -137 -174 -137 q-117 0 -146 137l-108 520q-27 -82 -79 -256t-75 -245q-18 -80 -59 -117t-117 -37q-66 0 -104.5 34t-38.5 97z" />
<glyph horiz-adv-x="1232" d="M-37 129q0 23 96 924q16 172 172 172q102 0 160 -103l383 -532l49 473q16 160 170 160q145 0 146 -133q0 -4 -9 -80q-35 -319 -88 -838q-18 -172 -174 -172q-98 0 -153 88l-387 533l-47 -459q-18 -162 -175 -162q-143 0 -143 129z" />
<glyph horiz-adv-x="1331" d="M-37 131q0 90 51.5 139t135.5 49h841q154 0 154 -131q0 -86 -51.5 -135t-135.5 -49h-841q-154 0 -154 127zM80 1018q0 86 47 136t129 50h811q145 0 145 -129q0 -88 -49 -136t-129 -48h-811q-143 0 -143 127zM164 586q0 82 47 123t127 41h539q74 0 109.5 -27t35.5 -90 q0 -80 -47 -122t-127 -42h-539q-74 0 -109.5 27t-35.5 90z" />
<glyph horiz-adv-x="1402" d="M14 528q0 283 208 483.5t485 200.5q246 0 401.5 -154.5t155.5 -391.5q0 -281 -205 -481.5t-481 -200.5q-260 0 -412 155.5t-152 388.5zM338 571q0 -117 75.5 -195.5t200.5 -78.5q137 0 228.5 100.5t91.5 231.5q0 115 -71.5 191.5t-188.5 76.5q-143 0 -239.5 -95.5 t-96.5 -230.5z" />
<glyph horiz-adv-x="1163" d="M-39 129q0 20 94 905q18 162 172 162h703q59 0 101 -44t42 -103l-92 -889q-18 -160 -172 -160q-145 0 -145 127q0 23 75 750h-387l-73 -717q-18 -160 -179 -160q-139 0 -139 129z" />
<glyph horiz-adv-x="1087" d="M-39 127q0 20 94 913q18 164 183 164h368q205 0 311.5 -110.5t106.5 -270.5q0 -213 -147.5 -352t-350.5 -141h-233l-17 -170q-18 -160 -174 -160q-141 0 -141 127zM328 645h225q143 0 154 129q0 51 -38 84t-120 33h-197z" />
<glyph horiz-adv-x="1157" d="M-37 135q0 90 53 158l346 325l-241 289q-39 76 -39 146q14 152 199 151h659q145 0 145 -129q0 -166 -178 -166h-356l137 -186q4 -10 15.5 -24.5t17.5 -29t6 -36.5q0 -20 -5 -37.5t-11 -26t-19.5 -24t-17.5 -21.5l-225 -229h421q76 0 110 -23.5t34 -85.5q0 -86 -48 -136 t-128 -50h-736q-139 0 -139 135z" />
<glyph horiz-adv-x="1077" d="M53 1018q0 86 49.5 135t133.5 49h671q145 0 146 -127q0 -88 -48.5 -137t-130.5 -49h-178l-75 -721q-18 -168 -175 -168q-145 0 -145 137q0 20 78 752h-176q-150 0 -150 129z" />
<glyph horiz-adv-x="1157" d="M57 1040q0 80 47.5 129.5t120.5 49.5q90 0 127 -84l193 -461q47 66 143 232.5t137 226.5q61 86 154 86q137 0 137 -123q0 -63 -33 -111l-417 -602l-23 -213q-18 -170 -176 -170q-145 0 -145 137q0 20 24 252l-274 584q-15 28 -15 67z" />
<glyph horiz-adv-x="1368" d="M16 567q0 203 147.5 327t350.5 148l2 15q14 156 176 155q72 0 109 -43t37 -82q0 -10 -4 -45q201 -14 302 -112.5t101 -259.5q0 -205 -145.5 -327t-348.5 -144l-4 -37q-18 -162 -174 -162q-145 0 -145 131q0 20 6 68q-199 18 -304.5 115t-105.5 253zM319 608q0 -49 37 -85 t101 -36l26 267q-72 0 -116 -41.5t-48 -104.5zM774 487q70 0 115 42t51 98q0 57 -35 92t-104 35z" />
<glyph horiz-adv-x="1095" d="M-41 123q0 82 66 162l315 329l-209 314q-27 39 -27 88q0 72 54.5 124t124.5 52q94 0 139 -80l119 -252l178 256q53 78 151 78q63 0 104.5 -40t41.5 -101q-6 -74 -53 -125l-275 -303l246 -332q37 -49 37 -115q0 -82 -45 -130t-119 -48q-109 0 -158 94l-170 281l-227 -285 q-72 -86 -162 -86q-131 0 -131 119z" />
<glyph horiz-adv-x="1429" d="M37 737q0 57 20 254q18 158 179 158q139 0 139 -129q0 -41 -8.5 -118t-8.5 -114q0 -201 103 -247l57 532q14 160 174 160q143 0 144 -131q0 2 -60 -565q139 47 170 342l10 112q14 158 177 158q143 0 143 -127q0 -20 -16 -166q-59 -565 -515 -614l-8 -84 q-18 -158 -174 -158q-143 0 -143 127q0 20 10 117q-393 53 -393 493z" />
<glyph horiz-adv-x="1300" d="M51 127q0 86 46 137t124 51h723q139 0 139 -131q0 -84 -46 -134t-126 -50h-723q-137 0 -137 127zM129 711q0 221 161 361t378 140q225 0 335.5 -112.5t110.5 -282.5q0 -145 -82 -252.5t-200.5 -157t-253.5 -49.5q-209 0 -329 98.5t-120 254.5zM440 768q0 -57 41 -95 t125 -38t139.5 44t59.5 107q0 53 -46 92.5t-126 39.5q-84 0 -136.5 -42t-56.5 -108z" />
<glyph horiz-adv-x="1392" d="M-31 133q0 45 27 98l498 854q68 139 204 140q139 0 176 -138l336 -858q10 -35 11 -55q0 -76 -49.5 -125t-122.5 -49q-115 0 -140 100l-73 176h-463l-90 -153l2 6q-55 -129 -181 -129q-68 0 -101.5 38t-33.5 95zM543 561h182q-45 125 -76 184z" />
<glyph horiz-adv-x="993" d="M-45 109q0 16 94 921q18 172 182 172h553q145 0 146 -125q0 -90 -48 -139t-130 -49h-404l-14 -146h317q76 0 112 -24.5t36 -85.5q0 -162 -176 -162h-318l-16 -156h420q156 0 155 -131q0 -86 -52 -135t-136 -49h-570q-88 0 -119.5 23t-31.5 86z" />
<glyph horiz-adv-x="501" d="M-51 129q0 20 94 918q18 160 174 159q143 0 143 -127q0 -23 -94 -919q-18 -160 -174 -160q-143 0 -143 129z" />
<glyph horiz-adv-x="1175" d="M-39 127q0 20 94 922q18 160 174 159q143 0 144 -127q0 -20 -31 -309h387l29 277q18 160 176 159q143 0 143 -129q0 -20 -94 -921q-16 -158 -176 -158q-143 0 -143 127q0 20 32 328h-387l-30 -297q-18 -158 -175 -158q-143 0 -143 127z" />
<glyph horiz-adv-x="1402" d="M14 528q0 283 208 483.5t485 200.5q246 0 401.5 -154.5t155.5 -391.5q0 -281 -205 -481.5t-481 -200.5q-260 0 -412 155.5t-152 388.5zM338 571q0 -117 75.5 -195.5t200.5 -78.5q137 0 228.5 100.5t91.5 231.5q0 115 -71.5 191.5t-188.5 76.5q-143 0 -239.5 -95.5 t-96.5 -230.5z" />
<glyph horiz-adv-x="1126" d="M37 1040q0 80 47 129.5t121 49.5q90 0 127 -84l192 -461q47 66 143.5 232.5t137.5 226.5q61 86 153 86q137 0 138 -123q0 -63 -33 -111l-418 -602l-22 -213q-18 -170 -177 -170q-145 0 -145 137q0 20 25 252l-275 584q-14 28 -14 67z" />
<glyph horiz-adv-x="1300" d="M51 127q0 86 46 137t124 51h723q139 0 139 -131q0 -84 -46 -134t-126 -50h-723q-137 0 -137 127zM129 711q0 221 161 361t378 140q225 0 335.5 -112.5t110.5 -282.5q0 -145 -82 -252.5t-200.5 -157t-253.5 -49.5q-209 0 -329 98.5t-120 254.5zM440 768q0 -57 41 -95 t125 -38t139.5 44t59.5 107q0 53 -46 92.5t-126 39.5q-84 0 -136.5 -42t-56.5 -108z" />
<glyph horiz-adv-x="346" d="M-72 129q0 20 95 918q18 160 174 159q143 0 143 -127q0 -23 -94 -919q-18 -160 -174 -160q-144 0 -144 129z" />
<glyph horiz-adv-x="1157" d="M57 1040q0 80 47.5 129.5t120.5 49.5q90 0 127 -84l193 -461q47 66 143 232.5t137 226.5q61 86 154 86q137 0 137 -123q0 -63 -33 -111l-417 -602l-23 -213q-18 -170 -176 -170q-145 0 -145 137q0 20 24 252l-274 584q-15 28 -15 67z" />
<glyph horiz-adv-x="1157" d="M-119 135q0 90 53 158l347 325l-242 289q-39 76 -39 146q14 152 199 151h659q145 0 146 -129q0 -166 -179 -166h-356l137 -186q4 -10 15.5 -24.5t17.5 -29t6 -36.5q0 -20 -5 -37.5t-11 -26t-19.5 -24t-17.5 -21.5l-225 -229h421q76 0 110 -23.5t34 -85.5q0 -86 -48 -136 t-128 -50h-736q-139 0 -139 135z" />
<glyph horiz-adv-x="346" d="M-72 129q0 20 95 918q18 160 174 159q143 0 143 -127q0 -23 -94 -919q-18 -160 -174 -160q-144 0 -144 129z" />
<glyph horiz-adv-x="1157" d="M57 1040q0 80 47.5 129.5t120.5 49.5q90 0 127 -84l193 -461q47 66 143 232.5t137 226.5q61 86 154 86q137 0 137 -123q0 -63 -33 -111l-417 -602l-23 -213q-18 -170 -176 -170q-145 0 -145 137q0 20 24 252l-274 584q-15 28 -15 67z" />
<glyph d="M123 635q0 156 38 313.5t111.5 301t199.5 235.5t284 96h8q125 0 216 -57.5t141 -155.5t74 -208.5t24 -235.5q0 -150 -38 -308.5t-111 -304t-199 -240t-281 -94.5q-129 0 -223.5 57.5t-145.5 155t-74.5 208t-23.5 237.5zM459 664q0 -150 40 -256.5t126 -106.5 q68 0 121 67.5t81.5 167t43 193.5t14.5 164q0 150 -38 255t-120 105q-70 0 -125 -66.5t-85 -164.5t-44 -191t-14 -167z" />
<glyph d="M145 123q0 82 48.5 130t128.5 48h196l90 862q-68 -25 -112 -24q-59 0 -100.5 36.5t-41.5 96.5q0 66 44 115t110 67l309 82q61 -4 101 -43t40 -96q0 -27 -112 -1096h201q147 0 147 -127q0 -82 -49 -128t-131 -46h-725q-144 0 -144 123z" />
<glyph d="M145 131q0 80 60 148l567 673q70 86 80 176q0 57 -38 90t-93 33q-59 0 -106.5 -40t-55.5 -111q-8 -63 -57 -121.5t-123 -58.5q-72 0 -111 52t-39 118q23 219 180.5 352t350.5 133q172 0 300 -108.5t128 -278.5q0 -221 -195 -449l-360 -420h330q141 0 141 -129 q0 -84 -47 -135t-129 -55h-606q-177 0 -177 131z" />
<glyph d="M154 334q0 78 49 135t123 57q45 0 86 -27.5t55 -74.5q39 -119 141 -119q70 0 126.5 45t64.5 123q0 74 -28 131.5t-89 67.5h-68q-82 0 -120.5 26.5t-38.5 87.5q0 160 192 160q39 0 60 4q41 12 71.5 67.5t34.5 108.5q0 135 -115 136q-117 0 -143 -103q-6 -33 -40 -71.5 t-99 -38.5q-156 0 -156 122q0 172 153.5 291t327.5 119q182 0 293 -114.5t111 -272.5q0 -113 -60.5 -207t-156.5 -153q199 -115 198 -338q0 -217 -170 -368t-381 -151q-127 0 -226 57.5t-152 145.5q-43 70 -43 154z" />
<glyph d="M94 498q0 78 60 147l551 760q94 131 229 131q84 0 136 -52t52 -143q0 -20 -69 -677q137 0 137 -129q0 -86 -46 -137.5t-124 -51.5l-16 -170q-18 -176 -183 -176q-70 0 -107.5 37t-37.5 108q0 20 18 199h-430q-82 0 -126 44t-44 110zM539 664h190l33 329z" />
<glyph d="M102 285q8 82 56.5 127t109.5 45q80 0 121 -70q27 -39 81 -64.5t110 -25.5q88 0 151.5 64.5t73.5 150.5q0 96 -46 156.5t-138 60.5q-35 0 -95.5 -15.5t-91.5 -15.5q-150 0 -149 131q0 16 1 27.5t5 27t15 52.5t26.5 85t44.5 145.5t61 215.5q20 70 74.5 110t132.5 40h430 q68 0 106 -42t38 -106q0 -82 -49.5 -132t-129.5 -50h-340q-6 -27 -41 -158q238 0 360 -130t122 -324q0 -252 -179.5 -432.5t-424.5 -180.5q-180 0 -307.5 99.5t-127.5 208.5z" />
<glyph d="M141 477q0 502 592 1010q68 49 127 49q68 0 110 -38t42 -105v-21q-6 -61 -62 -110q-6 -6 -60 -49.5t-73.5 -60.5t-59.5 -55t-66.5 -73t-47.5 -74q61 31 170 31q170 0 258 -112.5t88 -278.5q0 -246 -170 -429.5t-401 -183.5q-217 0 -332 142.5t-115 357.5zM465 496 q0 -82 42 -140.5t116 -60.5q86 8 144 75.5t69 155.5q0 92 -42 150.5t-130 58.5q-92 0 -145.5 -73.5t-53.5 -165.5z" />
<glyph d="M227 1339q0 94 53.5 144.5t141.5 50.5h645q66 0 112 -43t46 -111q0 -41 -29 -106l-604 -1145q-68 -129 -184 -129q-72 0 -106 40t-34 99q0 53 29 107l510 956h-420q-160 0 -160 137z" />
<glyph d="M137 422q0 131 68.5 245.5t181.5 176.5q-59 39 -93 110.5t-34 153.5q0 193 153.5 329t342.5 136q176 0 285.5 -104.5t109.5 -272.5q0 -106 -53.5 -196.5t-136.5 -143.5q74 -37 126 -135t52 -203q0 -217 -170 -379t-379 -162q-205 0 -329 124t-124 321zM477 463 q0 -70 40 -114t108 -44q78 0 129 64.5t51 140.5q0 72 -40 119t-101 47q-82 0 -134.5 -66.5t-52.5 -146.5zM588 1112q0 -51 26.5 -85t75.5 -34q47 0 83 43t42 99q0 59 -26.5 88.5t-67.5 29.5q-59 0 -96 -42t-37 -99z" />
<glyph d="M166 979q0 250 173 425t411 175q213 0 332.5 -140.5t119.5 -365.5q0 -309 -177 -584.5t-447 -482.5q-53 -39 -117 -39q-61 0 -101.5 39t-40.5 96q10 98 84 154q229 172 349 326q-102 -35 -195 -35q-184 0 -287.5 129t-103.5 303zM492 991q0 -90 48 -141t119 -51 q102 0 164 77.5t62 178.5q0 84 -45 142t-133 58q-98 0 -156.5 -84t-58.5 -180z" />
<glyph horiz-adv-x="1288" d="M113 539q0 190 73.5 358t216 277.5t322.5 113.5h8q229 0 349 -159.5t120 -393.5q0 -186 -70.5 -357t-214 -286t-327.5 -115q-158 0 -268.5 81t-159.5 205t-49 276zM442 573q0 -117 47.5 -194.5t135.5 -77.5q84 0 143 71.5t81.5 156.5t22.5 161q0 115 -46 194t-130 79 q-86 0 -147.5 -71t-84 -155t-22.5 -164z" />
<glyph d="M145 123q0 82 48.5 130t128.5 48h196q20 215 64 610q-16 -6 -72 -20q-14 -2 -41 -2q-59 0 -100 36t-41 95q0 66 45 116t108 66q51 12 95.5 24.5t73 19.5t52 14.5t37 10.5t22.5 6t14 4t8 2t8 1q53 0 87.5 -27.5t47.5 -66.5q6 -12 6 -49q0 -27 -84 -840h199q147 0 147 -127 q0 -82 -49 -128t-131 -46h-725q-144 0 -144 123z" />
<glyph d="M145 131q0 80 68 160q295 231 415 332.5t155.5 145.5t39.5 87q0 57 -37.5 90t-93.5 33q-59 0 -106 -41t-56 -113q-8 -61 -57 -119.5t-123 -58.5t-111.5 54.5t-37.5 132.5q23 209 180.5 337.5t349.5 128.5q174 0 301 -109.5t127 -281.5q0 -76 -29.5 -151.5t-64.5 -129 t-105.5 -121t-106.5 -97t-114 -91.5h224q141 0 141 -129q0 -86 -48 -138t-128 -52h-606q-177 0 -177 131z" />
<glyph d="M125 68q0 78 49 135t123 57q45 0 86 -27.5t57 -74.5q37 -119 140 -119q82 0 137 57.5t55 134.5q0 61 -29.5 113.5t-89.5 61.5h-67q-82 0 -121 26.5t-39 87.5q0 160 192 160q39 0 62 4q49 20 78.5 80.5t29.5 116.5q0 53 -30.5 83.5t-85.5 30.5q-119 0 -146 -102 q-2 -18 -14 -41t-45 -46.5t-78 -23.5q-158 0 -158 123q0 172 154 291t328 119q182 0 292.5 -115t110.5 -272q0 -115 -59.5 -208t-155.5 -153q197 -113 197 -334q0 -219 -169 -370.5t-380 -151.5q-127 0 -226.5 57.5t-154.5 145.5q-43 72 -43 154z" />
<glyph d="M70 262q0 84 57 146l551 759q96 129 231 129q84 0 136.5 -51t52.5 -139q0 -20 -72 -678q139 -4 139 -131q0 -86 -46 -136t-124 -50l-18 -170q-18 -178 -182 -179q-68 0 -107 38t-39 110q0 20 21 196h-430q-82 0 -126 44t-44 112zM512 428h190l33 307z" />
<glyph d="M72 -2q8 82 56 127t110 45q78 0 122 -70q27 -39 80.5 -64.5t108.5 -25.5q96 0 161.5 76t65.5 168q0 78 -48 133t-138 55q-35 0 -94.5 -15t-89.5 -15q-150 0 -150 127q0 20 1 31.5t4 26.5t14.5 51t25.5 83t44 146.5t65 218.5q20 70 73.5 109.5t130.5 39.5h430 q68 0 106 -43t38 -108q-8 -92 -52 -135.5t-126 -43.5h-340q-14 -70 -41 -157q238 0 359.5 -130t121.5 -325q0 -252 -178 -432t-424 -180q-180 0 -308 99t-128 208z" />
<glyph d="M141 477q0 502 592 1010q68 49 127 49q68 0 110 -38t42 -105q-6 -82 -62 -131q-6 -6 -60 -49.5t-73.5 -60.5t-59.5 -55t-66.5 -73t-47.5 -74q61 31 170 31q170 0 258 -112.5t88 -278.5q0 -246 -170 -429.5t-401 -183.5q-217 0 -332 142.5t-115 357.5zM465 496 q0 -82 42 -140.5t116 -60.5q86 8 144 75.5t69 155.5q0 92 -42 150.5t-130 58.5q-92 0 -145.5 -73.5t-53.5 -165.5z" />
<glyph d="M199 1081q0 92 53 142.5t143 50.5h645q66 0 111 -45t45 -115q-6 -61 -27 -100l-604 -1145q-68 -129 -186 -129q-72 0 -105.5 40t-33.5 99q0 49 30 107l510 956h-420q-161 0 -161 139z" />
<glyph d="M137 422q0 131 68.5 245.5t181.5 176.5q-59 39 -93 110.5t-34 153.5q0 193 153.5 329t342.5 136q176 0 285.5 -104.5t109.5 -272.5q0 -106 -53.5 -196.5t-136.5 -143.5q74 -37 126 -135t52 -203q0 -217 -170 -379t-379 -162q-205 0 -329 124t-124 321zM477 463 q0 -70 40 -114t108 -44q78 0 129 64.5t51 140.5q0 72 -40 119t-101 47q-82 0 -134.5 -66.5t-52.5 -146.5zM588 1112q0 -51 26.5 -85t75.5 -34q47 0 83 43t42 99q0 59 -26.5 88.5t-67.5 29.5q-59 0 -96 -42t-37 -99z" />
<glyph d="M133 688q0 248 174 422t410 174q213 0 333.5 -141.5t120.5 -364.5q0 -307 -176 -583.5t-448 -483.5q-53 -39 -117 -39q-61 0 -101 39t-40 96q10 98 84 154q229 172 348 326q-102 -35 -197 -35q-186 0 -288.5 130t-102.5 306zM461 682q0 -88 48 -138t120 -50 q102 0 162.5 76.5t60.5 179.5q0 84 -45 142t-133 58q-98 0 -155.5 -85t-57.5 -183z" />
</font>
</defs>
</svg>
