<?xml version="1.0" standalone="no"?>
<!DOCTYPE svg PUBLIC "-//W3C//DTD SVG 1.1//EN" "http://www.w3.org/Graphics/SVG/1.1/DTD/svg11.dtd" >
<svg xmlns="http://www.w3.org/2000/svg">
<metadata>
This is a custom SVG webfont generated by Font Squirrel.
Copyright   : Copyright c 2004 by Magenta 2008 by George Triantafyllakos Released under the SIL Open Font License OFL
Designer    : MagentaGeorge Triantafyllakos
Foundry     : MagentaGeorge Triantafyllakos
Foundry URL : httpwwwmagentagr
</metadata>
<defs>
<font id="BPreplayItalic" horiz-adv-x="1249" >
<font-face units-per-em="2048" ascent="1638" descent="-410" />
<missing-glyph horiz-adv-x="579" />
<glyph unicode=" "  horiz-adv-x="579" />
<glyph unicode="&#x09;" horiz-adv-x="579" />
<glyph unicode="&#xa0;" horiz-adv-x="579" />
<glyph unicode="!" horiz-adv-x="436" d="M10 90q4 51 37 83t76 32q41 0 66.5 -27.5t25.5 -75.5q-4 -43 -37 -72.5t-76 -29.5q-39 0 -65.5 25.5t-26.5 64.5zM63 354l117 1131q8 88 84 88q66 0 66 -70l-117 -1132q-8 -76 -84 -76q-66 0 -66 59z" />
<glyph unicode="&#x22;" horiz-adv-x="663" d="M123 1186l33 301q8 88 84 88q66 0 65 -70l-33 -319q-10 -80 -84 -80q-65 0 -65 80zM408 1186l32 301q8 88 86 88q70 0 70 -72l-33 -317q-10 -80 -88 -80q-67 0 -67 80z" />
<glyph unicode="#" horiz-adv-x="1323" d="M55 516q2 41 31 60.5t64 19.5h163l86 332h-151q-70 0 -70 55q6 78 84 78h168l102 434q18 76 74 76q27 0 46.5 -17.5t19.5 -44.5l-109 -448h287l106 434q18 78 74 78q27 0 44.5 -16.5t17.5 -43.5l-105 -452h143q74 0 74 -60q0 -39 -29.5 -56t-68.5 -17h-150l-86 -332h148 q68 0 67 -61q-4 -39 -31.5 -58.5t-58.5 -19.5h-155l-92 -357q-27 -100 -99 -100q-45 0 -45 45q0 6 2 16t2 15l97 381h-289l-88 -357q-25 -100 -99 -100q-47 0 -47 45q0 6 2 16t2 15l97 381h-142q-86 0 -86 59zM446 596h289l84 332h-287z" />
<glyph unicode="$" horiz-adv-x="1122" d="M57 154q2 41 24.5 65.5t57.5 24.5q33 0 121 -45t141 -49l66 612q-150 41 -249 135t-99 229q0 178 129 309.5t303 141.5l8 78q10 66 51 65q37 0 37 -47l-10 -96q90 -2 201.5 -51t111.5 -123q-6 -80 -78 -80q-23 0 -107.5 50t-141.5 54l-56 -516q168 -57 273.5 -163.5 t105.5 -258.5q0 -195 -144.5 -340t-328.5 -149q-4 -35 -10 -100q-6 -55 -47 -56q-43 0 -43 56l14 100q-106 8 -218 49.5t-112 104.5zM291 1169q0 -82 56 -141t138 -84l52 483q-102 -18 -170 -88t-76 -170zM487 141q123 29 206 119t83 207q0 182 -227 262z" />
<glyph unicode="%" horiz-adv-x="1660" d="M123 1155q0 172 111.5 294t271.5 122q141 0 222 -94.5t81 -237.5q0 -172 -111.5 -298t-271.5 -126q-141 0 -222 98.5t-81 241.5zM262 1155q0 -94 45 -158.5t131 -64.5q111 0 175.5 93t64.5 202q0 98 -49 162.5t-135 64.5q-109 0 -170.5 -95t-61.5 -204zM371 29 q2 23 10 43l709 1429q31 61 86 62q25 0 39 -16.5t14 -41.5q-4 -37 -17 -61l-723 -1444q-14 -31 -69 -31q-20 0 -34.5 16.5t-14.5 43.5zM795 336q0 174 112.5 297t274.5 123q139 0 218 -96.5t79 -239.5q0 -172 -107.5 -296t-267.5 -124q-145 0 -227 95.5t-82 240.5zM934 336 q0 -94 45 -157.5t135 -63.5q109 0 172.5 91t63.5 197q0 96 -47.5 166t-133.5 70q-111 0 -173 -96t-62 -207z" />
<glyph unicode="&#x26;" horiz-adv-x="1513" d="M41 373q0 319 434 579q-47 55 -68.5 85t-44 81t-22.5 101q0 147 103.5 249.5t244.5 102.5q111 0 185.5 -69.5t74.5 -198.5q0 -197 -256 -392l340 -438l144 205q55 80 110 80q63 0 64 -58q-2 -53 -41 -104l-193 -250q182 -225 182 -250v-8q-2 -35 -28.5 -61.5t-57.5 -26.5 q-35 0 -55 20l-149 226q-104 -135 -234.5 -212t-267.5 -77q-217 0 -341 115t-124 301zM195 393q0 -129 83.5 -210t213.5 -81q113 0 232.5 72t203.5 191l-373 477q-360 -230 -360 -449zM500 1251q0 -123 110 -233q195 147 195 282q0 66 -40 100t-95 34q-76 0 -123 -54.5 t-47 -128.5z" />
<glyph unicode="'" horiz-adv-x="528" d="M121 1155q4 29 8 35l156 309q39 76 100 76q31 0 53.5 -22.5t22.5 -55.5q-2 -29 -15 -49l-165 -301q-31 -55 -84 -55q-31 0 -53.5 18t-22.5 45z" />
<glyph unicode="(" horiz-adv-x="593" d="M66 551q0 578 385 975q31 23 59 22q27 0 44 -18.5t17 -46.5q-4 -31 -30 -58q-162 -170 -247 -393t-85 -473q0 -379 184 -594q12 -25 13 -47v-8q-2 -29 -23 -47.5t-49 -18.5q-35 0 -62 29q-206 232 -206 678z" />
<glyph unicode=")" horiz-adv-x="593" d="M-10 -90q4 27 22 55q164 158 251 390.5t87 484.5q0 342 -178 585q-18 25 -18 58q2 27 23.5 46t49.5 19q31 0 56 -22q213 -262 213 -656q0 -272 -97.5 -549.5t-285.5 -447.5q-31 -29 -66 -29q-57 0 -57 58v8z" />
<glyph unicode="*" d="M381 997q4 29 27 50l223 110l-195 111q-23 20 -22 53q4 23 23.5 41t43.5 18q6 0 23 -4l190 -133l15 240q18 57 67 57q47 0 55 -51l-40 -246l208 125q16 10 37 10t37.5 -16t16.5 -43q-4 -31 -37 -55l-224 -107l199 -102q29 -14 29 -56q-4 -25 -23.5 -42t-44.5 -17 q-14 0 -31 6l-186 119l-8 -219q-2 -33 -23.5 -50.5t-46.5 -17.5q-23 0 -38 15.5t-15 46.5l33 225l-211 -123q-16 -4 -27 -4q-23 0 -39 16t-16 43z" />
<glyph unicode="+" d="M109 549q8 96 102 96h373l39 375q4 41 28.5 64.5t63.5 23.5q33 0 54.5 -22.5t21.5 -57.5l-39 -383h372q43 0 66.5 -19.5t23.5 -52.5q-6 -100 -108 -100h-373l-41 -387q-4 -37 -29.5 -61.5t-60.5 -24.5q-78 0 -78 74l41 399h-372q-84 0 -84 76z" />
<glyph unicode="," horiz-adv-x="526" d="M-20 -213q0 14 8 35l170 334q33 66 92 65q29 0 48 -18.5t19 -44.5q0 -18 -6 -27l-192 -360q-27 -51 -74 -52q-27 0 -46 19.5t-19 48.5z" />
<glyph unicode="-" horiz-adv-x="792" d="M66 557q2 39 29.5 63.5t68.5 24.5h422q80 0 80 -70q-8 -86 -97 -86h-422q-81 0 -81 68z" />
<glyph unicode="." horiz-adv-x="438" d="M10 90q4 51 37 83t76 32q39 0 65.5 -25.5t26.5 -64.5q-4 -51 -37 -83t-76 -32q-39 0 -65.5 25.5t-26.5 64.5z" />
<glyph unicode="/" d="M268 29q2 23 11 43l708 1429q31 61 86 62q53 0 53 -66q-4 -31 -16 -53l-723 -1444q-14 -31 -70 -31q-20 0 -34.5 16.5t-14.5 43.5z" />
<glyph unicode="0" horiz-adv-x="1216" d="M53 614q0 115 20.5 240t67.5 254t115 231.5t170 167t223 64.5h8q115 0 201 -57.5t132 -153.5t67.5 -206t21.5 -232q0 -111 -20.5 -235t-67.5 -252t-114.5 -229.5t-169 -166t-222.5 -64.5q-119 0 -205.5 55.5t-134 149.5t-70 202.5t-22.5 231.5zM225 641 q0 -129 23.5 -237.5t89 -189.5t164.5 -81q86 0 156.5 57.5t115.5 145.5t76 194.5t44 201.5t13 171q0 131 -23.5 239.5t-86 187.5t-158.5 79q-109 0 -194 -84t-130 -210t-67.5 -249t-22.5 -225z" />
<glyph unicode="1" horiz-adv-x="720" d="M55 1339q4 74 84 95q313 86 322 86q49 0 61 -41l4 -35q0 -12 -4 -70l-135 -1286q-4 -39 -28.5 -63.5t-61.5 -24.5q-35 0 -55.5 20.5t-20.5 55.5l131 1265l-207 -57q-20 -4 -26 -4q-29 0 -46.5 16t-17.5 43z" />
<glyph unicode="2" horiz-adv-x="1171" d="M57 66v8q2 33 39 76l637 757q119 143 119 285q0 98 -71.5 156.5t-170.5 58.5q-109 0 -194.5 -72.5t-98.5 -201.5q-4 -35 -28.5 -67t-63.5 -32q-37 0 -56 30t-19 69v10q20 188 165.5 305t319.5 117q158 0 272.5 -96.5t114.5 -249.5q0 -207 -188 -428l-539 -635h563 q70 0 70 -66v-10q-10 -80 -86 -80h-678q-107 0 -107 66z" />
<glyph unicode="3" horiz-adv-x="1132" d="M68 305q4 39 26.5 60.5t50.5 21.5q53 0 72 -53q63 -195 248 -195q139 0 234.5 95.5t95.5 228.5q0 100 -53.5 174t-157.5 92q-25 4 -119 4q-86 2 -86 68v8q10 74 100 74q96 0 117 4q100 20 156.5 115.5t56.5 199.5q0 100 -58.5 157.5t-164.5 57.5q-88 0 -158 -59.5 t-78 -145.5q-10 -102 -90 -102q-76 0 -76 88q14 147 138 260t290 113q170 0 267.5 -99.5t97.5 -252.5q0 -223 -207 -392q190 -127 191 -350q0 -213 -148.5 -356.5t-349.5 -143.5q-154 0 -274.5 94.5t-120.5 233.5z" />
<glyph unicode="4" horiz-adv-x="1198" d="M43 475v8q8 45 35 78l627 862q68 96 165 97q117 0 117 -148l-88 -829h98q68 0 68 -66q-6 -88 -76 -88h-106l-31 -293q-10 -96 -86 -96q-72 0 -72 80l31 307h-584q-47 0 -72.5 25.5t-25.5 62.5zM242 543h499l86 805z" />
<glyph unicode="5" horiz-adv-x="1189" d="M29 223q4 41 25.5 62.5t47.5 21.5q41 0 60 -35q43 -63 125 -103t166 -40q154 0 262 119t108 266q0 127 -77.5 216t-225.5 89q-57 0 -117.5 -17.5t-89.5 -17.5q-76 0 -75 64q0 25 163 586q25 82 125 82h439q31 0 49 -23t18 -55q-8 -88 -84 -88h-422l-110 -396 q70 16 157 17q203 0 309.5 -122t106.5 -300q0 -240 -168 -407t-395 -167q-164 0 -280.5 80t-116.5 168z" />
<glyph unicode="6" horiz-adv-x="1144" d="M51 446q0 526 625 1045q37 31 74 31q33 0 54 -18.5t21 -51.5q-2 -41 -26 -61q-141 -119 -272.5 -267.5t-192.5 -253.5q104 109 293 109q158 0 261 -117t103 -303q0 -229 -154.5 -406.5t-375.5 -177.5q-197 0 -303.5 135t-106.5 336zM209 446q0 -133 72.5 -226t203.5 -93 q154 18 251.5 136t97.5 267q0 125 -73 211t-214 86q-152 0 -245 -117t-93 -264z" />
<glyph unicode="7" horiz-adv-x="1132" d="M90 1421q8 96 103 97h725q37 0 61.5 -24t24.5 -62q-2 -33 -19 -64l-678 -1284q-47 -84 -106 -84q-63 0 -64 68q2 45 15 61l649 1223h-625q-86 -1 -86 69z" />
<glyph unicode="8" horiz-adv-x="1126" d="M49 385q0 145 85 268t216 183q-164 106 -164 305q0 176 137.5 298t307.5 122q156 0 254 -91.5t98 -238.5q0 -229 -235 -383q102 -53 161.5 -149.5t59.5 -213.5q0 -207 -153.5 -358.5t-350.5 -151.5q-188 0 -302 114t-114 296zM225 410q0 -119 70 -196t188 -77 q137 0 225.5 107.5t88.5 240.5q0 117 -71 195t-179 78q-137 0 -229.5 -108.5t-92.5 -239.5zM350 1141q0 -98 57.5 -164t155.5 -66q111 0 179.5 93.5t68.5 201.5q0 94 -58.5 148.5t-142.5 54.5q-111 0 -185.5 -81t-74.5 -187z" />
<glyph unicode="9" horiz-adv-x="1204" d="M80 993q0 236 154.5 406t386.5 170q199 0 310 -132t111 -343q0 -317 -189 -610.5t-466 -497.5q-31 -23 -65 -23q-29 0 -47.5 17.5t-18.5 42.5q4 51 47 86q152 121 287 272t180 248q-111 -90 -272 -90q-197 0 -307.5 133t-110.5 321zM244 997q0 -141 79.5 -223t200.5 -82 q166 0 265.5 120t99.5 282q0 133 -73 225t-218 92q-160 0 -257 -129t-97 -285z" />
<glyph unicode=":" horiz-adv-x="434" d="M10 90q4 51 37 83t76 32q41 0 66.5 -27.5t25.5 -75.5q-4 -43 -37 -72.5t-76 -29.5q-39 0 -65.5 25.5t-26.5 64.5zM86 807q2 51 35 83t78 32q41 0 66.5 -29t25.5 -74q-4 -43 -38 -72.5t-77 -29.5q-39 0 -64.5 25.5t-25.5 64.5z" />
<glyph unicode=";" horiz-adv-x="526" d="M-20 -213q0 -29 19 -48.5t46 -19.5q47 0 74 52l192 360q6 8 6 27q0 27 -19 45t-48 18q-59 0 -92 -65l-170 -334q-8 -21 -8 -35zM188 807q0 51 34 83t79 32q41 0 66.5 -27t25.5 -68q0 -47 -34.5 -78.5t-79.5 -31.5q-39 0 -65 25.5t-26 64.5z" />
<glyph unicode="&#x3c;" horiz-adv-x="1300" d="M98 561q6 70 82 103l977 434q41 16 72 16q25 0 40 -16.5t15 -40.5q-6 -59 -76 -92l-886 -406l786 -401q68 -35 68 -80q-6 -76 -76 -76q-33 0 -78 23l-862 452q-62 31 -62 84z" />
<glyph unicode="=" d="M92 362q6 90 82 91h963q68 0 67 -62q-8 -88 -84 -88h-962q-66 0 -66 59zM137 788q6 88 80 89h963q68 0 67 -62q-6 -88 -82 -88h-962q-66 0 -66 61z" />
<glyph unicode="&#x3e;" horiz-adv-x="1300" d="M51 70q6 51 88 88l869 401l-801 406q-59 31 -60 84q4 29 25 47t47.5 18t67.5 -16l887 -434q61 -33 61 -84q-6 -68 -82 -103l-956 -452q-51 -23 -82 -23q-64 0 -64 68z" />
<glyph unicode="?" horiz-adv-x="987" d="M178 1188q16 154 137 244t263 90q137 0 229 -84t92 -234q0 -106 -45 -214.5t-134 -217t-156.5 -177.5t-178.5 -169q-31 -27 -61.5 -27t-48 18.5t-17.5 47.5v10q4 33 53 76q94 86 141.5 132t129.5 140.5t120.5 183.5t38.5 175q0 92 -55 139t-135 47q-78 0 -142.5 -53 t-80.5 -133q-8 -41 -32 -64.5t-52 -23.5q-66 0 -66 94zM215 102q0 43 35 73t78 30q41 0 66.5 -27.5t25.5 -75.5q0 -43 -35 -72.5t-78 -29.5q-41 0 -66.5 27.5t-25.5 74.5z" />
<glyph unicode="@" horiz-adv-x="1767" d="M104 641q0 393 237 664.5t611 271.5q285 0 463 -153.5t178 -426.5q0 -90 -22.5 -194.5t-63.5 -205.5t-114.5 -168t-163.5 -67q-111 0 -193 117q-115 -115 -250 -114q-150 0 -227.5 97t-77.5 240q0 188 114 337t292 149q109 0 190 -90q18 88 76 88q61 0 61 -68 q0 -88 -23.5 -255t-23.5 -247q0 -117 70 -116q59 0 105.5 55t69 135t33.5 151.5t11 123.5q0 221 -138 350t-362 129q-213 0 -377.5 -118t-245.5 -294t-81 -373q0 -250 151.5 -400t387.5 -150q340 0 516 176q43 41 79 41q51 0 52 -45q-4 -51 -33 -80q-227 -227 -598 -228 q-291 0 -497 183.5t-206 484.5zM629 721q0 -92 47 -153.5t141 -61.5q123 0 197 104l37 357q-68 82 -154 82q-123 0 -195.5 -103.5t-72.5 -224.5z" />
<glyph unicode="A" horiz-adv-x="1357" d="M6 61q2 18 12 52l603 1310q43 92 127 93q86 0 110 -93l340 -1310q6 -12 6 -29q0 -37 -21.5 -60.5t-56.5 -23.5q-57 0 -67 49l-82 262h-696l-117 -233q-39 -78 -98.5 -78t-59.5 61zM340 467h598l-209 840z" />
<glyph unicode="B" horiz-adv-x="1222" d="M8 74q0 16 2 26l137 1317q12 98 95 99h395q66 0 132.5 -18.5t129 -55.5t101 -101.5t38.5 -148.5q0 -123 -78.5 -224.5t-189.5 -136.5q129 -20 219 -123.5t90 -240.5q0 -193 -147.5 -330t-331.5 -137h-481q-68 0 -90 16q-21 17 -21 58zM166 150h387q145 0 250.5 86 t105.5 221q0 133 -106.5 208.5t-257.5 75.5h-316zM244 881h266q133 0 241.5 61.5t120.5 181.5q0 115 -72.5 178.5t-189.5 63.5h-315z" />
<glyph unicode="C" horiz-adv-x="1419" d="M72 655q0 233 98 441.5t285.5 341.5t416.5 133q252 0 414 -168q33 -31 33 -68q-4 -41 -27.5 -64.5t-54.5 -23.5q-41 0 -61 25q-121 133 -326 133q-188 0 -330.5 -112.5t-210 -273.5t-67.5 -331q0 -231 122.5 -392t352.5 -161q195 0 352 141q25 23 53 23q66 0 66 -66v-10 q-6 -49 -39 -76q-215 -170 -457 -170q-301 0 -460.5 195.5t-159.5 482.5z" />
<glyph unicode="D" horiz-adv-x="1318" d="M6 57q0 16 2 27l139 1333q12 98 129 99h406q258 0 397.5 -191.5t139.5 -466.5q0 -213 -91.5 -407.5t-263.5 -322.5t-381 -128h-397q-45 0 -62.5 11t-17.5 46zM166 150h321q135 0 247 65.5t179.5 169.5t104.5 224t37 239q0 221 -105.5 369.5t-304.5 148.5h-350z" />
<glyph unicode="E" horiz-adv-x="976" d="M6 57q0 20 2 35l142 1331q10 92 92 93h622q68 0 68 -60q-6 -90 -82 -90h-557l-53 -504h458q68 0 68 -65q-8 -84 -84 -84h-459l-59 -563h573q80 0 80 -62q-6 -88 -94 -88h-639q-45 0 -61.5 12t-16.5 45z" />
<glyph unicode="F" horiz-adv-x="897" d="M6 53l141 1364q12 98 95 99h604q68 0 67 -60q-6 -90 -82 -90h-536l-57 -541h405q68 0 68 -65q-8 -86 -84 -86h-406l-63 -613q-6 -61 -84 -61q-68 0 -68 53z" />
<glyph unicode="G" horiz-adv-x="1439" d="M72 633q0 176 55 345t153.5 303t251 217t330.5 83q117 0 238 -48t198 -140q29 -33 29 -62q-4 -37 -28.5 -64.5t-61.5 -27.5q-35 0 -68 33q-145 145 -333 145q-145 0 -263 -72.5t-188 -187.5t-106.5 -245t-36.5 -257q0 -221 113.5 -370.5t332.5 -149.5q209 0 347.5 158 t162.5 393q2 27 -6 31h-420q-82 0 -82 63v11q8 76 105 75h444q68 0 91.5 -32.5t23.5 -94.5q0 -195 -91.5 -369.5t-252 -283.5t-346.5 -109q-289 0 -440.5 187.5t-151.5 468.5z" />
<glyph unicode="H" horiz-adv-x="1355" d="M6 63l146 1381q6 76 79 76q70 0 70 -64v-12l-63 -598h845l64 598q8 76 79.5 76t71.5 -66l-145 -1380q-6 -74 -84 -74q-68 0 -68 63l66 631h-846l-65 -620q-6 -74 -80 -74q-70 0 -70 63z" />
<glyph unicode="I" horiz-adv-x="360" d="M6 63l146 1381q6 76 79 76q70 0 70 -64l-145 -1380q-8 -76 -82 -76q-68 0 -68 63z" />
<glyph unicode="J" horiz-adv-x="851" d="M12 125v8q10 78 78 78q16 0 82 -47q63 -47 143 -47q88 0 142.5 50t64.5 138l121 1139q8 76 82 76q72 0 72 -76l-121 -1139q-14 -152 -118.5 -242t-258.5 -90q-162 0 -268 103q-19 18 -19 49z" />
<glyph unicode="K" horiz-adv-x="1183" d="M6 57l146 1399q6 63 79 64q72 0 72 -56v-8l-78 -747l797 788q18 18 49 18.5t53.5 -23.5t22.5 -52q-2 -35 -25 -54l-491 -481l393 -772q18 -18 18 -51v-8q-2 -33 -32.5 -54.5t-51.5 -21.5q-37 0 -65 35l-385 760l-305 -289l-45 -438q-6 -66 -80 -66q-72 0 -72 57z" />
<glyph unicode="L" horiz-adv-x="1021" d="M8 94q0 4 1 11.5t1 11.5l142 1327q6 76 79 76q70 0 70 -64l-137 -1306h657q68 0 68 -60q-6 -90 -82 -90h-707q-92 0 -92 94z" />
<glyph unicode="M" horiz-adv-x="1828" d="M6 61v11l4 24l338 1274q41 154 148 154q102 0 129 -138l217 -1116l463 1116q55 133 159 134q106 0 113 -150l55 -1288q-2 -37 -25.5 -58.5t-56.5 -21.5q-72 0 -73 82l-43 1243l-531 -1239q-37 -88 -92 -88q-57 0 -76 88l-254 1241l-319 -1243q-23 -84 -90 -84 q-66 0 -66 59z" />
<glyph unicode="N" horiz-adv-x="1337" d="M6 66l144 1364q10 90 81 90q57 0 101 -74l674 -1176l122 1170q10 78 82 78q68 0 68 -62l-141 -1366q-10 -90 -82 -90q-59 0 -97 61l-679 1172l-123 -1155q-10 -78 -80 -78t-70 66z" />
<glyph unicode="O" horiz-adv-x="1499" d="M74 666q0 221 87 424.5t261 340t393 136.5q283 0 433.5 -198t150.5 -488q0 -166 -53.5 -327t-147.5 -289t-238.5 -206.5t-312.5 -78.5q-188 0 -321 99t-192.5 251t-59.5 336zM233 680q0 -233 113 -393t322 -160q139 0 252.5 70.5t180 182.5t101.5 236.5t35 247.5 q0 233 -112.5 391t-325.5 158q-137 0 -250 -70.5t-179.5 -181t-101.5 -235.5t-35 -246z" />
<glyph unicode="P" horiz-adv-x="1261" d="M6 63l144 1373q8 82 92 82h434q199 0 328 -115t129 -299q0 -215 -167 -361.5t-374 -146.5h-381l-55 -520q-8 -76 -80 -76q-70 0 -70 63zM227 745h373q156 0 266.5 100.5t110.5 246.5q0 129 -94.5 202.5t-249.5 73.5h-340z" />
<glyph unicode="Q" horiz-adv-x="1521" d="M74 666q0 221 87 424.5t261 340t393 136.5q283 0 433.5 -198t150.5 -488q0 -326 -187 -598q10 -12 123 -154q16 -23 17 -47v-8q-4 -29 -23.5 -50.5t-52.5 -21.5q-29 0 -45 18l-127 144q-211 -184 -457 -184q-188 0 -321 99t-192.5 251t-59.5 336zM236 680 q0 -233 112.5 -393t321.5 -160q176 0 340 149l-88 99q-23 27 -23 53q2 41 29.5 67.5t60.5 26.5t51 -22l84 -94q115 207 115 454q0 236 -111.5 394.5t-326.5 158.5q-137 0 -250 -70.5t-179.5 -181t-101 -235.5t-34.5 -246z" />
<glyph unicode="R" horiz-adv-x="1308" d="M8 74l142 1362q8 82 124 82h451q203 0 317.5 -88.5t114.5 -251.5q0 -160 -104.5 -279t-253.5 -158l221 -604q10 -35 10 -59v-12q-6 -68 -74 -68q-47 0 -65 41l-256 688h-410l-67 -635q-10 -92 -82 -92q-68 0 -68 74zM240 877h434q131 0 234.5 78.5t103.5 199.5 q0 104 -86 158.5t-199 54.5h-434z" />
<glyph unicode="S" horiz-adv-x="1091" d="M16 158q8 80 78 80q33 0 68 -25q117 -76 260 -76q147 0 253.5 99.5t106.5 240.5q0 78 -59 140.5t-203 132.5q-74 37 -110.5 56t-100 61t-95.5 79t-57.5 91.5t-25.5 115.5q0 176 146.5 295t318.5 119q182 0 313 -107q49 -37 49 -88q-4 -37 -28.5 -63.5t-55.5 -26.5 q-29 0 -73 37q-100 84 -226 84q-113 0 -188.5 -61.5t-83.5 -145.5q0 -37 17.5 -71.5t38 -58.5t61.5 -51.5t62.5 -39.5t68.5 -36l55 -28q170 -88 260 -188t90 -238q0 -225 -166.5 -367.5t-386.5 -142.5q-193 0 -342 103q-45 35 -45 80z" />
<glyph unicode="T" horiz-adv-x="1056" d="M150 1432q8 86 90 86h755q70 0 70 -62q-6 -88 -84 -88h-303l-135 -1282q-10 -86 -82 -86q-70 0 -70 70l135 1298h-301q-75 1 -75 64z" />
<glyph unicode="U" horiz-adv-x="1366" d="M53 475q0 51 97 955q8 88 92 88q74 0 73 -72q-92 -877 -92 -930q0 -373 383 -373q190 0 307 102.5t144 354.5l88 830q8 88 92 88q76 0 76 -72l-90 -862q-16 -164 -76 -285t-151 -189.5t-197.5 -100.5t-229.5 -32q-236 0 -376 119t-140 379z" />
<glyph unicode="V" horiz-adv-x="1320" d="M152 1438v10q6 74 86 74q59 0 71 -62l297 -1206l543 1206q29 59 78 60q31 0 50 -25t19 -57q0 -14 -18 -61.5t-69.5 -161t-109 -237.5t-171 -370t-219.5 -481q-59 -127 -129 -127q-66 0 -95 109l-331 1302q-2 9 -2 27z" />
<glyph unicode="W" horiz-adv-x="1822" d="M150 1433.5q0 6.5 2 10.5q2 35 26.5 55.5t57.5 20.5q68 0 73 -76l80 -1239l477 1237q31 78 117 78t98 -78l209 -1235l334 1233q23 84 94 84q31 0 51.5 -19.5t20.5 -52.5v-8l-381 -1340q-14 -47 -53 -75.5t-86 -28.5q-43 0 -76 23.5t-41 70.5l-199 1186l-442 -1153 q-25 -66 -65.5 -98.5t-84.5 -32.5q-45 0 -78.5 33.5t-37.5 87.5l-94 1308q-2 2 -2 8.5z" />
<glyph unicode="X" horiz-adv-x="1325" d="M4 47v10q6 35 33 70l532 717l-346 555q-12 23 -12 43v8q2 31 25.5 50.5t52.5 19.5q41 0 65 -37l320 -514l383 512q31 37 67 37q27 0 47.5 -19.5t20.5 -48.5q-2 -31 -23 -53l-419 -559l397 -707q20 -35 20 -68v-8q-6 -57 -65 -57q-45 0 -72 45l-391 670l-498 -668 q-37 -47 -84 -47q-53 0 -53 49z" />
<glyph unicode="Y" horiz-adv-x="1132" d="M152 1436v12q6 72 73 72q41 0 60 -43l284 -605l383 601q35 47 78 47q61 0 62 -56v-10q-4 -25 -17 -43l-444 -698l-66 -625q-8 -88 -84 -88q-70 0 -69 72v16l65 625l-317 682q-8 18 -8 41z" />
<glyph unicode="Z" horiz-adv-x="1198" d="M8 68v18q2 41 31 80l924 1202h-713q-72 0 -72 64v10q8 76 86 76h823q96 0 97 -60q-2 -43 -51 -106l-924 -1202h784q72 0 72 -58v-14q-6 -78 -86 -78h-907q-64 0 -64 68z" />
<glyph unicode="[" horiz-adv-x="522" d="M-2 -27l154 1479q8 100 94 100h149q59 0 60 -57q0 -2 -1 -7t-1 -9q-6 -61 -70 -62h-86l-147 -1413h86q57 0 57 -51v-10q-8 -70 -74 -70h-149q-72 0 -72 80v20z" />
<glyph unicode="\" horiz-adv-x="940" d="M156 1475v8q2 31 26.5 48t59.5 17q29 0 41 -17.5t26 -62.5l410 -1396q2 -6 2 -23q-4 -27 -24.5 -45t-49.5 -18q-61 0 -82 69l-407 1397q-2 9 -2 23z" />
<glyph unicode="]" horiz-adv-x="522" d="M-6 -70q0 4 1 10.5t1 8.5q6 55 57 55h97l145 1399q-4 0 -33 -1t-53 -1q-55 0 -55 53v12q6 70 69 70h154q74 0 74 -76q0 -16 -2 -24l-154 -1463q-8 -100 -92 -100h-154q-55 0 -55 57z" />
<glyph unicode="^" d="M123 608q2 35 24 70l543 807q31 51 88 51q55 0 80 -51l354 -807q10 -27 11 -51v-11q-6 -70 -82 -69q-51 0 -88 82l-297 690l-461 -690q-33 -47 -50.5 -64.5t-48 -17.5t-52 16t-21.5 45z" />
<glyph unicode="_" horiz-adv-x="1060" d="M-94 -195q6 68 82 68h1020q72 0 71 -70q-6 -66 -86 -65h-1020q-67 -1 -67 67z" />
<glyph unicode="`" horiz-adv-x="528" d="M117 1124q0 20 10 41l172 320q31 57 84 57q76 0 76 -65v-9q0 -2 -6 -20l-172 -315q-41 -72 -82 -72q-37 0 -59.5 18t-22.5 45z" />
<glyph unicode="a" horiz-adv-x="1288" d="M37 473q0 123 37 245t104.5 224t173 167t230.5 65q100 0 190 -50.5t123 -140.5l8 84q10 80 86 80q66 0 66 -64q-86 -829 -86 -847q0 -115 133 -115q82 0 82 -55v-13q-6 -72 -97 -71q-125 0 -186 50t-76 148q-68 -88 -166 -147.5t-204 -59.5q-205 0 -311.5 142.5 t-106.5 357.5zM195 485q0 -160 69.5 -266t202.5 -106q123 0 216 91t135 209.5t42 231.5q0 176 -84 278.5t-205 102.5q-92 0 -167.5 -55.5t-118.5 -140.5t-66.5 -175t-23.5 -170z" />
<glyph unicode="b" horiz-adv-x="1148" d="M4 43q0 2 1 8t1 10l164 1436q10 80 84 80q68 0 68 -64v-16l-72 -559q43 96 150.5 166t211.5 70q203 0 310.5 -152t107.5 -369q0 -164 -62.5 -316.5t-190.5 -257t-292 -104.5q-111 0 -196.5 53.5t-118.5 149.5l-12 -119q-4 -37 -30 -59.5t-58 -22.5q-66 0 -66 66zM215 500 q0 -160 75 -270.5t222 -110.5q92 0 166 52t113.5 135t60 169t20.5 166q0 160 -64.5 272.5t-201.5 112.5q-127 0 -220 -89t-132 -204.5t-39 -232.5z" />
<glyph unicode="c" horiz-adv-x="1034" d="M55 494q0 262 175.5 457.5t428.5 195.5q147 0 240 -45q61 -27 62 -68q-2 -39 -24 -61.5t-52 -22.5q-8 0 -21 4q-102 47 -217 47q-193 0 -314.5 -152.5t-121.5 -338.5q0 -164 99.5 -275.5t250.5 -111.5q127 0 236 70q14 8 28 8q20 0 37 -17.5t17 -42.5q-2 -43 -56 -82 q-135 -82 -282 -82q-213 0 -349.5 146t-136.5 371z" />
<glyph unicode="d" horiz-adv-x="1269" d="M53 473q0 123 37 245t104.5 224t173 167t230.5 65q100 0 190.5 -50.5t122.5 -140.5l58 516q10 80 86 80q66 0 65 -63v-17q-82 -711 -135 -1159q-12 -106 -12 -111q0 -109 131 -108q82 0 82 -55v-13q-6 -72 -96 -71q-233 0 -263 196q-154 -205 -356 -205 q-205 0 -311.5 142.5t-106.5 357.5zM211 483q0 -160 69.5 -266t202.5 -106q94 0 172 53t124 135t70.5 172t24.5 172q0 174 -82.5 277.5t-203.5 103.5q-92 0 -168 -55.5t-119 -140.5t-66.5 -175t-23.5 -170z" />
<glyph unicode="e" horiz-adv-x="1206" d="M55 487q0 266 160 477.5t403 211.5q203 0 313.5 -119t110.5 -318q0 -242 -137 -241h-692q0 -166 93 -268.5t235 -102.5q88 0 151.5 22.5t136.5 81.5q47 37 93 37q61 0 61 -59v-10q-4 -27 -18 -41q-166 -182 -441 -183q-223 0 -346 144.5t-123 367.5zM231 645h654 q2 18 2 51q0 143 -75 235.5t-204 92.5q-145 0 -253 -111.5t-124 -267.5z" />
<glyph unicode="f" horiz-adv-x="770" d="M-104 -428q6 76 96 76q94 0 127 55t47 191l117 1087h-97q-76 0 -75 61q6 92 92 93h96q20 195 93 290t245 95q84 0 84 -64q-8 -76 -98 -76q-94 0 -127 -55t-47 -190q66 0 131 2q76 0 75 -68q-8 -90 -96 -90h-127q-33 -307 -56.5 -527.5t-32.5 -301t-15 -143t-13 -113.5 q-20 -195 -92.5 -290.5t-245.5 -95.5q-81 1 -81 64z" />
<glyph unicode="g" horiz-adv-x="1243" d="M43 -303q4 39 25.5 63.5t56.5 24.5q31 0 63 -23q121 -72 250 -71q150 0 258.5 94t126.5 274l11 105q-47 -94 -141.5 -140.5t-196.5 -46.5q-213 0 -327 147.5t-114 367.5q0 268 161 475t407 207q94 0 183 -56.5t114 -136.5l14 131q6 68 80 68q70 0 69 -58l-108 -1044 q-27 -256 -185.5 -398.5t-361.5 -142.5q-215 0 -352 92q-33 23 -33 68zM213 504q0 -182 86 -283.5t209 -101.5q96 0 172 52t119 135t65.5 171t22.5 172q0 178 -84 276.5t-207 98.5t-214 -89t-130 -203.5t-39 -227.5z" />
<glyph unicode="h" horiz-adv-x="1054" d="M6 63l164 1436q10 80 82 80q68 0 67 -63l-65 -521q117 176 319 176q145 0 256 -98t111 -250q0 -27 -78 -749q-6 -74 -82 -74q-68 0 -67 63v11q70 659 69 690q0 125 -70.5 192.5t-172.5 67.5q-115 0 -207 -82t-109 -225l-67 -643q-6 -74 -82 -74q-68 0 -68 63z" />
<glyph unicode="i" horiz-adv-x="616" d="M55 223q0 29 88 864q8 76 84 76q72 0 72 -76q-88 -823 -88 -843q0 -123 129 -123q82 0 82 -55v-13q-6 -72 -96 -71q-135 0 -203 63t-68 178zM150 1473q2 51 34.5 82.5t77.5 31.5q41 0 66.5 -27.5t25.5 -74.5q-4 -43 -37.5 -73t-76.5 -30q-39 0 -64.5 26t-25.5 65z" />
<glyph unicode="j" horiz-adv-x="399" d="M-256 -420q0 -72 82 -72q172 0 246.5 95.5t95.5 290.5l125 1208q0 59 -68 59q-78 0 -86 -74l-125 -1193q-14 -135 -47 -190.5t-127 -55.5q-90 0 -96 -68zM150 1473q2 51 34.5 82.5t77.5 31.5q41 0 66.5 -27.5t25.5 -74.5q-4 -43 -37.5 -73t-76.5 -30q-39 0 -64.5 26 t-25.5 65z" />
<glyph unicode="k" horiz-adv-x="972" d="M6 63l156 1438q8 76 84 76q66 0 65 -59l-98 -883l506 514q16 18 51 18q29 0 48.5 -19.5t19.5 -47.5q-2 -37 -50 -84l-268 -283l260 -586q25 -61 25 -69q0 -37 -22.5 -59.5t-53.5 -22.5q-45 0 -70 45l-264 604l-200 -203l-39 -368q-6 -74 -82 -74q-68 0 -68 63z" />
<glyph unicode="l" horiz-adv-x="520" d="M25 211q0 6 14 143q51 471 121 1149q10 78 82 78q70 0 69 -63q-94 -889 -133 -1248q-4 -37 -4 -39q0 -111 133 -110q82 0 82 -55v-13q-6 -72 -96 -71q-268 0 -268 229z" />
<glyph unicode="m" horiz-adv-x="1691" d="M6 66l105 999q10 90 86 90q66 0 65 -68l-8 -96q51 82 139 132.5t178 50.5q100 0 179 -59.5t108 -156.5q59 96 163.5 156t219.5 60q147 0 246.5 -89.5t99.5 -232.5q0 -27 -80 -774q-6 -74 -82 -74q-72 0 -71 64q74 690 73 716q0 100 -56 166t-154 66q-127 0 -217.5 -94.5 t-104.5 -227.5l-66 -616q-8 -76 -79 -76q-70 0 -70 64q74 692 74 716q0 100 -57.5 165t-157.5 65q-127 0 -215 -92.5t-103 -225.5l-65 -616q-8 -76 -80 -76q-70 1 -70 64z" />
<glyph unicode="n" horiz-adv-x="1048" d="M6 63l107 1010q6 80 82 80q68 0 67 -68l-8 -90q117 178 326 179q145 0 252.5 -96.5t107.5 -252.5q0 -29 -78 -751q-6 -74 -82 -74q-68 0 -67 63q70 670 69 701q0 125 -70.5 192.5t-172.5 67.5q-115 0 -207 -82t-109 -225l-67 -643q-6 -74 -82 -74q-68 0 -68 63z" />
<glyph unicode="o" horiz-adv-x="1177" d="M55 489q0 268 159 476.5t404 208.5q209 0 322 -152t113 -373q0 -268 -157 -470t-404 -202q-211 0 -324 146.5t-113 365.5zM217 518q0 -162 72.5 -280.5t218.5 -118.5q125 0 216 81t131 190.5t40 221.5q0 166 -73.5 290t-219.5 124q-127 0 -218 -85t-129 -196.5 t-38 -226.5z" />
<glyph unicode="p" horiz-adv-x="1148" d="M-41 -406q0 -8 156 1500q6 80 84 80q68 0 67 -68l-16 -168q43 96 150.5 166t211.5 70q203 0 310.5 -152t107.5 -369q0 -164 -62.5 -316.5t-190.5 -257t-292 -104.5q-111 0 -196.5 53.5t-118.5 149.5l-59 -567q-4 -37 -30 -59.5t-58 -22.5q-64 -1 -64 65zM219 492 q0 -160 74 -268.5t221 -108.5q94 0 168 52t114 134t60.5 168t20.5 168q0 160 -64.5 272.5t-202.5 112.5q-129 0 -222 -91t-131 -206.5t-38 -232.5z" />
<glyph unicode="q" horiz-adv-x="1210" d="M53 473q0 123 37 245t104.5 224t173 167t230.5 65q100 0 190.5 -50.5t122.5 -140.5l13 111q6 80 86 80q66 0 65 -68l-157 -1509q-6 -68 -82 -68q-70 0 -70 55l61 594q-154 -205 -356 -205q-205 0 -311.5 142.5t-106.5 357.5zM209 485q0 -160 69.5 -266t202.5 -106 q123 0 216.5 91t135 209.5t41.5 231.5q0 176 -83.5 278.5t-204.5 102.5q-92 0 -168 -55.5t-119 -140.5t-66.5 -175t-23.5 -170z" />
<glyph unicode="r" horiz-adv-x="827" d="M6 63l107 1010q6 80 82 80q68 0 67 -68l-10 -110q63 96 165.5 147.5t213.5 51.5q72 0 105.5 -26t33.5 -63q-4 -37 -28.5 -61.5t-59.5 -24.5q-27 0 -63.5 7.5t-73.5 7.5q-104 0 -206.5 -91.5t-115.5 -205.5l-67 -643q-6 -74 -82 -74q-68 0 -68 63z" />
<glyph unicode="s" horiz-adv-x="1060" d="M31 145q0 39 21.5 69t58.5 30q29 0 57 -23q127 -88 272 -88q98 0 176 42t89 132q0 70 -57.5 113t-153.5 78q-76 29 -113 44t-98.5 45.5t-90 58.5t-53 71t-24.5 92q0 178 120.5 272.5t329.5 94.5q178 0 309 -74q31 -18 31 -60q-2 -41 -24.5 -62.5t-55 -21.5t-124 33 t-158.5 33q-102 0 -178 -43t-86 -135q10 -57 58 -94t133 -67t101 -38q145 -59 226.5 -132t81.5 -193q-18 -174 -152.5 -259.5t-308.5 -85.5q-188 0 -365 121q-22 16 -22 47z" />
<glyph unicode="t" horiz-adv-x="763" d="M111 1055q6 78 71 78h76l16 167q8 74 82 74q68 0 68 -59l-16 -182h180q72 0 71 -60q-6 -80 -84 -80h-184q-72 -686 -72 -729q0 -76 28 -109.5t104 -33.5q82 0 81 -55v-13q-6 -72 -96 -71q-147 0 -206.5 68.5t-59.5 207.5q0 51 74 737h-66q-67 1 -67 60z" />
<glyph unicode="u" horiz-adv-x="1095" d="M43 346q0 53 70 725q8 76 82 76q68 0 67 -76q-63 -633 -63 -674q0 -158 61.5 -216t165.5 -58q127 0 236.5 121t132.5 323l53 512q6 80 78 80q66 0 65 -63l-110 -1057q-6 -68 -80 -68q-70 0 -70 56l14 151q-154 -213 -354 -213q-150 0 -249 94t-99 287z" />
<glyph unicode="v" horiz-adv-x="1011" d="M111 1067q10 72 84 72q59 0 77 -90l174 -783l342 785q39 88 102.5 88t63.5 -60q0 -25 -8 -45l-436 -973q-27 -61 -96 -61q-61 0 -76 61l-225 971q-2 12 -2 35z" />
<glyph unicode="w" horiz-adv-x="1748" d="M111 1051q6 86 84 86q61 0 79 -64l170 -817l361 807q31 72 100 72q33 0 62.5 -19.5t33.5 -52.5l179 -799l336 811q27 63 92 64q61 0 61 -58q0 -31 -18 -71q0 -18 -406 -932q-33 -76 -98 -76q-61 0 -80 82l-190 805l-351 -811q-35 -78 -104 -78q-76 0 -94 84 q-217 940 -217 967z" />
<glyph unicode="x" horiz-adv-x="1097" d="M6 57q2 47 43 99l391 469l-256 376q-16 29 -16 54q2 35 27.5 57.5t58.5 22.5q49 0 74 -45l204 -357l302 359q33 45 81 45q31 0 51.5 -18.5t20.5 -47.5q-2 -37 -31 -67l-344 -396l295 -444q29 -43 29 -88q-6 -76 -72 -76q-57 0 -96 63l-256 418l-358 -420q-51 -57 -95 -57 q-53 0 -53 53z" />
<glyph unicode="y" horiz-adv-x="1038" d="M-43 -428q6 76 96 76q49 0 92 27.5t71 60.5t56.5 94t40 92t31.5 92l-229 996q-4 29 -4 37q6 88 79 88q63 0 80 -72l183 -836l370 846q27 63 92.5 63.5t65.5 -59.5q-2 -43 -10 -61l-471 -1014q-111 -238 -167.5 -329t-133.5 -136q-70 -29 -160 -29q-82 1 -82 64z" />
<glyph unicode="z" horiz-adv-x="1050" d="M6 66v8q6 35 47 86l662 829h-510q-68 0 -68 66q2 47 22.5 63.5t61.5 16.5h625q84 0 84 -54q-2 -45 -53 -108l-662 -830h576q68 0 67 -59q-2 -47 -21.5 -65.5t-60.5 -18.5h-657q-113 0 -113 66z" />
<glyph unicode="{" horiz-adv-x="770" d="M74 719q2 10 5 18t11 14.5t13.5 11.5t19.5 10t19 7t21.5 7.5t20.5 7.5q115 45 146 319q8 90 10 172q14 145 91 197.5t210 52.5q25 0 42 -17.5t17 -39.5q-6 -59 -94 -60q-115 0 -129 -155q-4 -31 -6 -88.5t-4 -75.5q-31 -291 -213 -387q137 -51 137 -264q0 -59 -14.5 -165 t-14.5 -157q0 -119 117 -125q61 -2 62 -45v-8q-6 -59 -72 -60q-260 0 -260 187q0 63 19.5 183t19.5 179q0 172 -78 213q-4 0 -21.5 4t-23.5 6.5t-19.5 7.5t-17.5 10t-9 15.5t-5 24.5z" />
<glyph unicode="|" horiz-adv-x="372" d="M2 33l164 1552q8 88 84 88q66 0 65 -69l-163 -1565q-8 -76 -82 -76q-68 0 -68 70z" />
<glyph unicode="}" horiz-adv-x="770" d="M-4 -51q6 51 72 53q49 2 82.5 24.5t48 66.5t20.5 78t8 94.5t4 76.5q33 309 209 371q-135 80 -135 299q0 61 16.5 155.5t16.5 135.5q0 117 -102 116q-82 0 -82 47q4 29 24.5 49.5t46.5 20.5q123 0 188.5 -43t65.5 -162q0 -57 -17.5 -164.5t-17.5 -160.5q0 -174 82 -211 q70 -27 84 -43q10 -14 11 -33q0 -14 -6.5 -24.5t-12.5 -15.5t-20.5 -10t-21.5 -7.5t-24.5 -5.5t-23.5 -5q-45 -25 -73.5 -72t-43 -113.5t-19.5 -119.5t-9.5 -128t-6.5 -99q-10 -104 -75.5 -167t-231.5 -63q-57 0 -57 50v10z" />
<glyph unicode="~" horiz-adv-x="1224" d="M47 451q8 82 110.5 168t194.5 86t228.5 -78t187.5 -78q47 0 84 39t73 76.5t79 37.5q63 0 63 -71q0 -86 -120 -168t-208 -82q-82 0 -207.5 77t-193.5 77q-61 0 -125 -74q-68 -80 -107 -80q-59 0 -59 70z" />
<glyph unicode="&#xa3;" horiz-adv-x="1353" d="M82 68q6 49 80 120q113 106 172 205t59 211q0 47 -10 109h-233q-68 0 -68 57q6 92 84 92h184q-80 135 -80 271q0 193 146.5 301t337.5 108q186 0 322 -101.5t136 -279.5q-4 -35 -27.5 -59.5t-54.5 -24.5q-53 0 -73 64q-4 117 -97.5 184.5t-216.5 67.5q-129 0 -211.5 -76 t-82.5 -197q0 -123 67 -258h275q66 0 65 -63q-8 -86 -82 -86h-235q16 -59 16 -129q0 -233 -248 -428h762q68 0 68 -62q-6 -90 -82 -90h-895q-78 1 -78 64z" />
<glyph unicode="&#xa4;" horiz-adv-x="1609" d="M80 80q4 49 72 100l217 162q-14 49 -15 119q0 141 68 262l-197 172q-49 45 -49 100q6 55 72 56q35 0 76 -35l192 -178q127 104 287 104q152 0 260 -98l225 172q43 35 80 35q63 0 64 -56q-6 -51 -74 -100l-215 -160q35 -80 35 -162q0 -125 -62 -247l168 -146 q51 -47 51 -100q-2 -27 -24.5 -41t-48.5 -14q-41 0 -74 34l-162 146q-131 -125 -307 -125q-184 0 -289 137l-207 -158q-43 -35 -82 -34q-61 0 -61 55zM487 471q0 -125 71 -194.5t173 -69.5q133 0 222 103.5t89 246.5q0 121 -74.5 190.5t-176.5 69.5q-131 0 -217.5 -101.5 t-86.5 -244.5z" />
<glyph unicode="&#xa5;" horiz-adv-x="1230" d="M106 897q4 41 31 65.5t68 24.5h155l-198 432q-8 18 -8 41q2 39 24.5 61.5t50.5 22.5q37 0 60 -43l305 -622l436 622q27 43 74 43q59 0 59 -49q0 -35 -26 -76l-301 -432h165q80 0 80 -63q-6 -90 -96 -90h-258l-84 -121l-8 -84h266q82 0 82 -68q-8 -86 -98 -86h-267 l-43 -403q-10 -86 -83 -86q-70 0 -70 69l43 420h-266q-80 0 -80 62q4 41 29.5 66.5t66.5 25.5h266l8 84l-57 121h-244q-82 0 -82 63z" />
<glyph unicode="&#xa6;" horiz-adv-x="372" d="M6 63l70 674q4 43 27.5 68.5t56.5 25.5q68 0 67 -63l-71 -694q-6 -74 -82 -74q-68 0 -68 63zM102 967l66 632q4 43 26.5 69t55.5 26q68 0 67 -66l-65 -645q-8 -76 -84 -76q-66 1 -66 60z" />
<glyph unicode="&#xa7;" horiz-adv-x="1069" d="M59 25v8q4 35 28 55.5t54 20.5q25 0 43 -13q88 -53 242 -53q236 0 252 160q0 20 -7 37.5t-25.5 34t-33 27.5t-48.5 26.5t-51 23.5t-61 25.5t-61 23.5q-307 123 -307 312q0 51 26.5 93t73.5 42q33 0 57.5 -24.5t24.5 -61.5q0 -76 60.5 -128t145.5 -85t171 -66.5t146.5 -93 t60.5 -141.5q0 -170 -138.5 -268.5t-312.5 -98.5q-170 0 -307 80q-33 17 -33 64zM135 1198q0 170 138.5 268.5t312.5 98.5q168 0 309 -80q31 -16 31 -64v-8q-2 -35 -27 -55.5t-55 -20.5q-25 0 -43 13q-88 53 -242 53q-236 0 -252 -160q0 -20 7.5 -37.5t25.5 -34t32.5 -27.5 t48.5 -26.5t51 -24t61.5 -25.5t60.5 -24q307 -123 307 -311q0 -51 -26.5 -93t-73.5 -42q-33 0 -57.5 24.5t-24.5 61.5v29q0 68 -60.5 114.5t-145.5 76.5t-171 62.5t-146.5 90t-60.5 141.5z" />
<glyph unicode="&#xa8;" horiz-adv-x="808" d="M139 1319q4 51 37 83t76 32q39 0 65.5 -26t26.5 -65q-4 -51 -37 -82.5t-76 -31.5q-39 0 -65.5 25.5t-26.5 64.5zM549 1319q4 51 36.5 83t76.5 32q39 0 65.5 -26t26.5 -65q-4 -51 -37 -82.5t-76 -31.5q-39 0 -65.5 25.5t-26.5 64.5z" />
<glyph unicode="&#xa9;" horiz-adv-x="1775" d="M72 649q0 369 249.5 619t610.5 250q313 0 503.5 -189.5t190.5 -490.5q0 -242 -118.5 -441.5t-315.5 -311.5t-426 -112q-313 0 -503.5 187.5t-190.5 488.5zM217 664q0 -244 156.5 -397.5t410.5 -153.5q297 0 493 212t196 492q0 248 -152 405.5t-406 157.5 q-299 0 -498.5 -215.5t-199.5 -500.5zM420 692q0 211 148.5 377t353.5 166q90 0 190 -45q49 -29 49 -62q-4 -31 -22.5 -52t-42.5 -21q-8 0 -17 4q-86 39 -178 39q-156 0 -250 -122t-94 -274q0 -123 70.5 -213t185.5 -90q74 0 123 19q72 23 76 22q55 0 55 -49q-2 -45 -39 -72 q-72 -53 -213 -53q-182 0 -288.5 122t-106.5 304z" />
<glyph unicode="&#xab;" horiz-adv-x="903" d="M57 553q2 35 35 76l234 334q18 25 49 24q29 0 50 -20.5t21 -46.5q0 -20 -12 -41l-233 -318q37 -72 174 -360q0 -4 1 -8.5t1 -6.5q-2 -20 -32 -37.5t-58 -17.5q-33 0 -47 25l-162 333q-21 39 -21 64zM377 551v8q2 29 31 70l239 334q18 23 53 22q76 0 76 -55v-8 q-2 -20 -18 -43l-238 -318q6 -8 176 -360q2 -4 2 -15q-2 -20 -31.5 -37.5t-58.5 -17.5q-31 0 -47 25l-168 333q-16 37 -16 62z" />
<glyph unicode="&#xac;" horiz-adv-x="1345" d="M59 551v14q4 33 31 56.5t66 23.5h948q76 0 76 -78v-18l-33 -303q-8 -88 -82 -88q-31 0 -52.5 20.5t-21.5 54.5v13l27 243h-879q-80 1 -80 62z" />
<glyph unicode="&#xad;" horiz-adv-x="1570" />
<glyph unicode="&#xae;" horiz-adv-x="1773" d="M76 672q0 365 254 614.5t602 249.5q311 0 501.5 -189.5t190.5 -490.5q0 -242 -116.5 -441.5t-312.5 -312t-425 -112.5q-311 0 -502.5 190.5t-191.5 491.5zM225 686q0 -248 150.5 -404.5t417.5 -156.5q301 0 491.5 214t190.5 501q0 246 -152 401.5t-405 155.5 q-297 0 -495 -214t-198 -497zM498 356l82 789q6 57 34 74q20 10 58 10h301q125 0 203 -80q63 -63 63 -154q-20 -211 -254 -272q18 -33 47 -95.5t43 -86.5q84 -158 84 -174q0 -63 -84 -64q-51 0 -76 64l-163 356h-166l-39 -356q-6 -63 -76 -64q-57 0 -57 53zM682 840h233 q74 0 121 37.5t51 95.5q0 63 -37.5 101t-105.5 38h-233z" />
<glyph unicode="&#xb0;" horiz-adv-x="624" d="M147 1411q0 94 68 161.5t160 67.5q84 0 134 -51t50 -131q0 -94 -68.5 -161.5t-158.5 -67.5q-82 0 -133.5 51t-51.5 131zM252 1419q0 -39 23.5 -63.5t68.5 -24.5q43 0 75 33t36 80q0 39 -23.5 65.5t-66.5 26.5q-47 0 -78 -32t-35 -85z" />
<glyph unicode="&#xb1;" d="M70 68q4 39 30.5 63.5t67.5 24.5h915q80 0 80 -64q-6 -90 -94 -90h-915q-84 0 -84 66zM135 721q0 47 24.5 72.5t69.5 25.5h373l33 326q8 80 86 80q33 0 56.5 -19.5t23.5 -50.5l-33 -336h373q43 0 67.5 -20.5t24.5 -53.5v-10q-8 -78 -111 -78h-372l-37 -346 q-2 -35 -30 -56.5t-65 -21.5q-72 0 -71 66v12l37 346h-373q-76 1 -76 64z" />
<glyph unicode="&#xb2;" horiz-adv-x="665" d="M29 770v4q0 14 18 37l320 379q59 74 59 143q0 49 -36 78t-85 29q-55 0 -97 -36t-50 -101q-2 -16 -14.5 -33t-30.5 -17q-39 0 -39 50v6q10 94 82.5 152.5t160.5 58.5q78 0 135.5 -48.5t57.5 -125.5q0 -102 -94 -213l-269 -318h281q35 0 35 -33v-6q-4 -39 -43 -39h-338 q-53 0 -53 33z" />
<glyph unicode="&#xb3;" horiz-adv-x="624" d="M33 889q6 41 39 41q29 0 37 -27q31 -96 122 -96q70 0 118 47t48 115q0 49 -26.5 87t-79.5 46q-4 0 -31 1t-29 1q-43 0 -43 33v4q6 37 52 37q4 0 29.5 1t27.5 1q49 10 77.5 58t28.5 99q0 49 -28.5 79t-81.5 30q-45 0 -80 -30t-39 -73q-4 -51 -45 -51q-37 0 -37 43 q6 74 68.5 130.5t144.5 56.5q86 0 134 -49.5t48 -126.5q0 -111 -102 -195q94 -66 94 -176q0 -106 -73.5 -178t-174.5 -72q-78 0 -138 47t-60 117z" />
<glyph unicode="&#xb5;" horiz-adv-x="1101" d="M-43 -424l152 1485q8 76 86 76q68 0 67 -60l-67 -655q-6 -55 -7 -62q0 -98 64.5 -158.5t163.5 -60.5q135 0 228 95.5t110 236.5l61 588q8 76 86 76q68 0 68 -60l-103 -989q-8 -88 -84 -88q-70 0 -69 66l4 57q2 10 2 27q-127 -166 -338 -166q-63 0 -125.5 30.5t-93.5 79.5 q-8 -86 -26.5 -254t-26.5 -248q-8 -76 -86 -75q-66 0 -66 59z" />
<glyph unicode="&#xb6;" horiz-adv-x="1146" d="M117 1110q0 213 155.5 323.5t391.5 110.5h419q59 -4 60 -67q-4 -29 -25.5 -48.5t-48.5 -19.5h-98l-142 -1339q-4 -29 -25.5 -49.5t-49.5 -20.5q-27 0 -44.5 18.5t-17.5 42.5l142 1348h-154l-141 -1339q-4 -29 -25.5 -49.5t-50.5 -20.5q-27 0 -43.5 18.5t-16.5 42.5 l78 754q-170 0 -267 82t-97 213z" />
<glyph unicode="&#xb7;" horiz-adv-x="438" d="M74 705q4 51 36.5 82.5t77.5 31.5q39 0 65 -25.5t26 -64.5q-4 -51 -37 -83t-76 -32q-39 0 -65.5 26t-26.5 65z" />
<glyph unicode="&#xbb;" horiz-adv-x="907" d="M18 172q0 16 9 25l249 364l-174 359q-4 8 -4 14q2 23 28 41t56 18q39 0 56 -30l163 -334q18 -37 19 -64q-2 -31 -33 -76l-235 -333q-12 -23 -58 -23q-76 0 -76 39zM336 170q0 18 10 27l252 364l-170 318q-14 29 -14 55q6 59 78 59q45 0 61 -30l172 -334q16 -37 16 -62v-8 q-2 -29 -30 -70l-244 -333q-12 -23 -61 -23q-70 0 -70 37z" />
<glyph unicode="&#xbd;" horiz-adv-x="1693" d="M41 1376q4 57 63 72q229 63 242 63q37 0 45 -30l4 -25q0 -8 -4 -53l-100 -965q-10 -66 -67.5 -65.5t-57.5 57.5l98 948l-155 -43q-8 -2 -21 -2q-47 0 -47 43zM254 37q0 6 8 35l709 1429q29 61 78 62q20 0 33.5 -14.5t13.5 -39.5q0 -27 -15 -55l-716 -1421 q-20 -43 -64 -43q-20 0 -33.5 12t-13.5 35zM909 49v6q4 25 29 58l477 567q90 109 90 213q0 74 -54 118t-128 44q-80 0 -144.5 -54.5t-74.5 -150.5q-2 -27 -20.5 -50.5t-49.5 -23.5q-27 0 -41 22.5t-14 51.5v6q14 141 122.5 229.5t239.5 88.5q119 0 205 -73t86 -188 q0 -156 -141 -321l-404 -475h422q53 0 54 -49v-9q-10 -59 -66 -59h-508q-80 0 -80 49z" />
<glyph unicode="&#x192;" horiz-adv-x="770" d="M-104 -428q6 76 96 76q94 0 127 55t47 191l117 1087h-97q-76 0 -75 61q6 92 92 93h96q20 195 93 290t245 95q84 0 84 -64q-8 -76 -98 -76q-94 0 -127 -55t-47 -190q66 0 131 2q76 0 75 -68q-8 -90 -96 -90h-127q-33 -307 -56.5 -527.5t-32.5 -301t-15 -143t-13 -113.5 q-20 -195 -92.5 -290.5t-245.5 -95.5q-81 1 -81 64z" />
<glyph unicode="&#x384;" horiz-adv-x="702" d="M123 1141q0 25 10 45l172 319q31 57 80 58q63 0 64 -74q0 -2 -7 -21l-172 -315q0 -23 -28.5 -47.5t-51.5 -24.5q-67 1 -67 60z" />
<glyph unicode="&#x385;" horiz-adv-x="946" d="M139 1319q4 51 37 83t76 32q39 0 65.5 -26t26.5 -65q-4 -51 -37 -82.5t-76 -31.5q-39 0 -65.5 25.5t-26.5 64.5zM455 1286q0 27 12 43l170 320q31 57 84 57q66 0 65 -59q0 -25 -6 -35l-172 -316q-41 -72 -82 -71q-71 0 -71 61zM754 1319q4 51 36.5 83t75.5 32 q39 0 65.5 -26t26.5 -65q-4 -51 -36.5 -82.5t-75.5 -31.5q-39 0 -65.5 25.5t-26.5 64.5z" />
<glyph unicode="&#x386;" horiz-adv-x="1384" d="M47 61q2 18 12 52l603 1310q43 92 126 93q86 0 111 -93l340 -1310q6 -12 6 -29q0 -37 -21.5 -60.5t-56.5 -23.5q-57 0 -67 49l-82 262h-696l-117 -233q-39 -78 -98.5 -78t-59.5 61zM123 1141q0 25 10 45l172 319q31 57 80 58q63 0 64 -74q0 -2 -7 -21l-172 -315 q0 -23 -28.5 -47.5t-51.5 -24.5q-67 1 -67 60zM381 467h598l-209 840z" />
<glyph unicode="&#x388;" horiz-adv-x="1413" d="M123 1141q0 25 10 45l172 319q31 57 80 58q63 0 64 -74q0 -2 -7 -21l-172 -315q0 -23 -28.5 -47.5t-51.5 -24.5q-67 1 -67 60zM436 57q0 20 2 35l142 1331q10 92 92 93h622q68 0 68 -60q-6 -90 -82 -90h-557l-53 -504h458q68 0 68 -65q-8 -84 -84 -84h-459l-59 -563h573 q80 0 80 -62q-6 -88 -94 -88h-639q-45 0 -61.5 12t-16.5 45z" />
<glyph unicode="&#x389;" horiz-adv-x="1796" d="M123 1141q0 25 10 45l172 319q31 57 80 58q63 0 64 -74q0 -2 -7 -21l-172 -315q0 -23 -28.5 -47.5t-51.5 -24.5q-67 1 -67 60zM457 63l145 1381q6 76 80 76q70 0 70 -64v-12l-64 -598h846l63 598q8 76 80 76t72 -66l-145 -1380q-6 -74 -84 -74q-68 0 -68 63l66 631h-846 l-66 -620q-6 -74 -80 -74q-69 0 -69 63z" />
<glyph unicode="&#x38a;" horiz-adv-x="804" d="M123 1141q0 25 10 45l172 319q31 57 80 58q63 0 64 -74q0 -2 -7 -21l-172 -315q0 -23 -28.5 -47.5t-51.5 -24.5q-67 1 -67 60zM436 63l146 1381q6 76 80 76q70 0 69 -64l-145 -1380q-8 -76 -82 -76q-68 0 -68 63z" />
<glyph unicode="&#x38c;" horiz-adv-x="1744" d="M123 1141q0 25 10 45l172 319q31 57 80 58q63 0 64 -74q0 -2 -7 -21l-172 -315q0 -23 -28.5 -47.5t-51.5 -24.5q-67 1 -67 60zM319 666q0 221 87.5 424.5t261.5 340t393 136.5q283 0 433.5 -198t150.5 -488q0 -166 -53.5 -327t-147.5 -289t-238.5 -206.5t-312.5 -78.5 q-188 0 -321.5 99t-193 251t-59.5 336zM479 680q0 -233 113 -393t321 -160q139 0 253 70.5t180.5 182.5t101.5 236.5t35 247.5q0 233 -113 391t-326 158q-137 0 -249.5 -70.5t-179 -181t-101.5 -235.5t-35 -246z" />
<glyph unicode="&#x38e;" horiz-adv-x="1538" d="M123 1141q0 25 10 45l172 319q31 57 80 58q63 0 64 -74q0 -2 -7 -21l-172 -315q0 -23 -28.5 -47.5t-51.5 -24.5q-67 1 -67 60zM561 1436v12q6 72 74 72q41 0 59 -43l285 -605l383 601q35 47 78 47q61 0 61 -56v-10q-4 -25 -16 -43l-445 -698l-65 -625q-8 -88 -84 -88 q-70 0 -70 72v16l66 625l-318 682q-8 18 -8 41z" />
<glyph unicode="&#x38f;" horiz-adv-x="1792" d="M123 1141q0 25 10 45l172 319q31 57 80 58q63 0 64 -74q0 -2 -7 -21l-172 -315q0 -23 -28.5 -47.5t-51.5 -24.5q-67 1 -67 60zM426 858q0 293 205 501t491 208q274 0 423 -165t149 -403q0 -295 -205 -493.5t-500 -198.5q-272 0 -417.5 160t-145.5 391zM446 61q8 88 78 89 h908q63 0 63 -60q0 -39 -20.5 -64.5t-57.5 -25.5h-907q-64 0 -64 61zM582 879q0 -180 110.5 -303t317.5 -123q227 0 379.5 153.5t152.5 368.5q0 182 -114.5 313t-319.5 131q-225 0 -375.5 -163.5t-150.5 -376.5z" />
<glyph unicode="&#x390;" horiz-adv-x="520" d="M-154 1442q4 51 37 82.5t76 31.5q39 0 65.5 -25.5t26.5 -64.5q-4 -51 -36.5 -82.5t-75.5 -31.5q-39 0 -66 25.5t-27 64.5zM23 215q0 -233 272 -233q92 0 98 71v13q0 55 -84 55q-127 0 -127 112q0 20 88 850q0 66 -75.5 66t-83.5 -76q-88 -829 -88 -858zM162 1409 q0 27 12 43l170 320q31 57 84 57q66 0 66 -60q0 -25 -7 -34l-172 -316q-41 -72 -82 -71q-71 0 -71 61zM461 1442q4 51 36.5 82.5t75.5 31.5q39 0 66 -25.5t27 -64.5q-4 -51 -37 -82.5t-76 -31.5q-39 0 -65.5 25.5t-26.5 64.5z" />
<glyph unicode="&#x391;" horiz-adv-x="1357" d="M6 61q2 18 12 52l603 1310q43 92 127 93q86 0 110 -93l340 -1310q6 -12 6 -29q0 -37 -21.5 -60.5t-56.5 -23.5q-57 0 -67 49l-82 262h-696l-117 -233q-39 -78 -98.5 -78t-59.5 61zM340 467h598l-209 840z" />
<glyph unicode="&#x392;" horiz-adv-x="1085" d="M8 74q0 16 2 26l137 1317q12 98 95 99h313q66 0 132.5 -18.5t129 -55.5t101 -101.5t38.5 -148.5q0 -123 -78.5 -224.5t-189.5 -136.5q129 -20 219 -123.5t90 -240.5q0 -193 -147.5 -330t-331.5 -137h-399q-68 0 -90 16q-21 17 -21 58zM166 150h305q145 0 250.5 86 t105.5 221q0 133 -106.5 208.5t-257.5 75.5h-234zM244 881h184q133 0 241.5 61.5t121.5 181.5q0 115 -73 178.5t-190 63.5h-233z" />
<glyph unicode="&#x393;" horiz-adv-x="976" d="M6 63v13l141 1343q12 98 95 99h645q33 0 52 -20.5t19 -49.5v-8q-6 -72 -86 -72h-577l-137 -1292q-8 -76 -84 -76q-68 0 -68 63z" />
<glyph unicode="&#x394;" horiz-adv-x="1392" d="M4 45v8q4 20 12 35l631 1339q43 94 127 95q88 0 107 -95l366 -1339q4 -20 4 -31v-8q-6 -49 -127 -49h-1030q-90 0 -90 45zM213 162h850l-311 1149z" />
<glyph unicode="&#x395;" horiz-adv-x="976" d="M6 57q0 20 2 35l142 1331q10 92 92 93h622q68 0 68 -60q-6 -90 -82 -90h-557l-53 -504h458q68 0 68 -65q-8 -84 -84 -84h-459l-59 -563h573q80 0 80 -62q-6 -88 -94 -88h-639q-45 0 -61.5 12t-16.5 45z" />
<glyph unicode="&#x396;" horiz-adv-x="1198" d="M8 68v18q2 41 31 80l924 1202h-713q-72 0 -72 64v10q8 76 86 76h823q96 0 97 -60q-2 -43 -51 -106l-924 -1202h784q72 0 72 -58v-14q-6 -78 -86 -78h-907q-64 0 -64 68z" />
<glyph unicode="&#x397;" horiz-adv-x="1355" d="M6 63l146 1381q6 76 79 76q70 0 70 -64v-12l-63 -598h845l64 598q8 76 79.5 76t71.5 -66l-145 -1380q-6 -74 -84 -74q-68 0 -68 63l66 631h-846l-65 -620q-6 -74 -80 -74q-70 0 -70 63z" />
<glyph unicode="&#x398;" horiz-adv-x="1497" d="M74 666q0 221 87 424.5t261 340t393 136.5q283 0 433.5 -198t150.5 -488q0 -166 -53.5 -327t-147.5 -289t-238.5 -206.5t-312.5 -78.5q-188 0 -321 99t-192.5 251t-59.5 336zM236 680q0 -233 112.5 -393t321.5 -160q139 0 252.5 70.5t180 182.5t101.5 236.5t35 247.5 q0 233 -112.5 391t-325.5 158q-137 0 -250 -70.5t-179.5 -181t-101 -235.5t-34.5 -246zM371 768q10 86 84 86h567q68 0 68 -63q-6 -88 -82 -89h-568q-69 0 -69 66z" />
<glyph unicode="&#x399;" horiz-adv-x="360" d="M6 63l146 1381q6 76 79 76q70 0 70 -64l-145 -1380q-8 -76 -82 -76q-68 0 -68 63z" />
<glyph unicode="&#x39a;" horiz-adv-x="1183" d="M6 57l146 1399q6 63 79 64q72 0 72 -56v-8l-78 -747l797 788q18 18 49 18.5t53.5 -23.5t22.5 -52q-2 -35 -25 -54l-491 -481l393 -772q18 -18 18 -51v-8q-2 -33 -32.5 -54.5t-51.5 -21.5q-37 0 -65 35l-385 760l-305 -289l-45 -438q-6 -66 -80 -66q-72 0 -72 57z" />
<glyph unicode="&#x39b;" horiz-adv-x="1378" d="M6 59q0 10 6 29l627 1339q43 94 127 95q82 0 106 -95l357 -1312q6 -29 6 -43q-6 -72 -80 -72q-33 0 -49 19.5t-29 62.5l-334 1229l-581 -1250q-27 -61 -82 -61q-31 0 -52.5 17t-21.5 42z" />
<glyph unicode="&#x39c;" horiz-adv-x="1828" d="M6 61v11l4 24l338 1274q41 154 148 154q102 0 129 -138l217 -1116l463 1116q55 133 159 134q106 0 113 -150l55 -1288q-2 -37 -25.5 -58.5t-56.5 -21.5q-72 0 -73 82l-43 1243l-531 -1239q-37 -88 -92 -88q-57 0 -76 88l-254 1241l-319 -1243q-23 -84 -90 -84 q-66 0 -66 59z" />
<glyph unicode="&#x39d;" horiz-adv-x="1337" d="M6 66l144 1364q10 90 81 90q57 0 101 -74l674 -1176l122 1170q10 78 82 78q68 0 68 -62l-141 -1366q-10 -90 -82 -90q-59 0 -97 61l-679 1172l-123 -1155q-10 -78 -80 -78t-70 66z" />
<glyph unicode="&#x39e;" horiz-adv-x="1298" d="M2 70q6 86 94 86h946q78 0 78 -64q-6 -88 -92 -88h-946q-80 0 -80 66zM172 1432q8 86 84 86h911q68 0 68 -60q-6 -90 -82 -90h-911q-70 1 -70 64zM250 774q6 88 82 88h606q68 0 68 -65q-8 -84 -84 -84h-607q-65 0 -65 61z" />
<glyph unicode="&#x39f;" horiz-adv-x="1499" d="M74 666q0 221 87 424.5t261 340t393 136.5q283 0 433.5 -198t150.5 -488q0 -166 -53.5 -327t-147.5 -289t-238.5 -206.5t-312.5 -78.5q-188 0 -321 99t-192.5 251t-59.5 336zM233 680q0 -233 113 -393t322 -160q139 0 252.5 70.5t180 182.5t101.5 236.5t35 247.5 q0 233 -112.5 391t-325.5 158q-137 0 -250 -70.5t-179.5 -181t-101.5 -235.5t-35 -246z" />
<glyph unicode="&#x3a0;" horiz-adv-x="1320" d="M6 63v13l146 1368q10 78 81 78h973q29 0 49.5 -21.5t20.5 -50.5l-146 -1374q-8 -76 -79 -76q-70 0 -70 63v13l137 1292h-825l-137 -1292q-8 -76 -84 -76q-66 0 -66 63z" />
<glyph unicode="&#x3a1;" horiz-adv-x="1067" d="M6 63l144 1373q8 82 92 82h352q199 0 328 -115t129 -299q0 -215 -167 -361.5t-374 -146.5h-299l-55 -520q-8 -76 -80 -76q-70 0 -70 63zM227 745h291q156 0 266.5 100.5t110.5 246.5q0 129 -94 202.5t-250 73.5h-258z" />
<glyph unicode="&#x3a3;" horiz-adv-x="1163" d="M8 68q2 59 31 98l444 592q18 27 19 41q0 23 -13 47l-282 504q-29 51 -29 88q6 80 111 80h823q68 0 68 -62q-6 -90 -82 -90h-715l283 -516q14 -23 14 -55q0 -18 -18 -41l-457 -604h790q68 0 68 -78q-6 -72 -82 -72h-909q-64 0 -64 68z" />
<glyph unicode="&#x3a4;" horiz-adv-x="1056" d="M150 1432q8 86 90 86h755q70 0 70 -62q-6 -88 -84 -88h-303l-135 -1282q-10 -86 -82 -86q-70 0 -70 70l135 1298h-301q-75 1 -75 64z" />
<glyph unicode="&#x3a5;" horiz-adv-x="1132" d="M152 1436v12q6 72 73 72q41 0 60 -43l284 -605l383 601q35 47 78 47q61 0 62 -56v-10q-4 -25 -17 -43l-444 -698l-66 -625q-8 -88 -84 -88q-70 0 -69 72v16l65 625l-317 682q-8 18 -8 41z" />
<glyph unicode="&#x3a6;" horiz-adv-x="1511" d="M84 782q0 174 102.5 314.5t254 211t313.5 74.5l12 111q8 76 84 76q68 0 68 -62q0 -18 -17 -125q229 0 392 -138t163 -353q0 -174 -102.5 -312.5t-252 -207t-310.5 -72.5l-25 -221q-10 -78 -80 -78t-70 66l25 233q-240 0 -398.5 133t-158.5 350zM229 801 q0 -160 128 -260.5t298 -100.5l84 801q-207 -12 -358.5 -132t-151.5 -308zM805 440q209 8 358.5 127t149.5 310q0 164 -122 264t-302 100z" />
<glyph unicode="&#x3a7;" horiz-adv-x="1325" d="M4 47v10q6 35 33 70l532 717l-346 555q-12 23 -12 43v8q2 31 25.5 50.5t52.5 19.5q41 0 65 -37l320 -514l383 512q31 37 67 37q27 0 47.5 -19.5t20.5 -48.5q-2 -31 -23 -53l-419 -559l397 -707q20 -35 20 -68v-8q-6 -57 -65 -57q-45 0 -72 45l-391 670l-498 -668 q-37 -47 -84 -47q-53 0 -53 49z" />
<glyph unicode="&#x3a8;" horiz-adv-x="1515" d="M92 838q0 92 9.5 193.5t26.5 228t24 186.5q6 74 84 74q66 0 65 -64q-57 -563 -57 -575q0 -199 105.5 -305.5t297.5 -106.5l107 1024q8 76 82 76q68 0 67 -60v-16l-106 -1024q221 0 347 124t148 353l54 500q8 76 84 76q70 0 69 -64v-12l-55 -526q-29 -274 -210 -434 t-454 -160l-26 -252q-6 -74 -82 -74q-68 0 -68 63l27 263q-250 6 -394.5 141t-144.5 371z" />
<glyph unicode="&#x3a9;" horiz-adv-x="1464" d="M98 858q0 293 205 501t492 208q274 0 422.5 -165t148.5 -403q0 -295 -205 -493.5t-499 -198.5q-272 0 -418 160t-146 391zM119 61q8 88 78 89h907q63 0 63 -60q0 -39 -20.5 -64.5t-56.5 -25.5h-908q-63 0 -63 61zM254 879q0 -180 110.5 -303t317.5 -123 q227 0 379.5 153.5t152.5 368.5q0 182 -114.5 313t-319.5 131q-225 0 -375.5 -163.5t-150.5 -376.5z" />
<glyph unicode="&#x3aa;" horiz-adv-x="360" d="M-61 1708q4 51 36.5 83t75.5 32q39 0 65.5 -25.5t26.5 -64.5q-4 -51 -36.5 -83t-75.5 -32q-39 0 -65.5 25.5t-26.5 64.5zM6 63q0 -63 68 -63q74 0 82 76l145 1380q0 63 -70 64q-74 0 -79 -76zM348 1708q4 51 37 83t76 32q39 0 65.5 -25.5t26.5 -64.5q-4 -51 -37 -83 t-76 -32q-39 0 -65.5 25.5t-26.5 64.5z" />
<glyph unicode="&#x3ab;" horiz-adv-x="1132" d="M152 1436q0 -23 8 -41l317 -682l-65 -625v-16q0 -72 69 -72q76 0 84 88l66 625l444 698q12 18 17 43v10q0 55 -62 56q-43 0 -78 -47l-383 -601l-284 605q-18 43 -60 43q-68 0 -73 -72v-12zM352 1708q4 51 37 83t76 32q39 0 65.5 -25.5t26.5 -64.5q-4 -51 -37 -83t-76 -32 q-39 0 -65.5 25.5t-26.5 64.5zM762 1708q4 51 36.5 83t75.5 32q39 0 66 -25.5t27 -64.5q-4 -51 -37 -83t-76 -32q-39 0 -65.5 25.5t-26.5 64.5z" />
<glyph unicode="&#x3ac;" horiz-adv-x="1280" d="M51 473q0 166 62.5 323.5t190.5 267.5t294 110q100 0 188 -46.5t123 -134.5l9 74q8 80 88 80q68 0 67 -64q-86 -829 -86 -847q0 -115 131 -115q84 0 84 -55v-13q-6 -72 -98 -71q-236 0 -264 194q-68 -86 -165 -144.5t-204 -58.5q-207 0 -313.5 142.5t-106.5 357.5z M213 485q0 -160 68.5 -266t201.5 -106q121 0 214.5 91t135 209.5t41.5 231.5q0 176 -83.5 278.5t-202.5 102.5q-121 0 -210 -96t-127 -215t-38 -230zM557 1386q0 25 10 46l172 319q31 57 80 57q63 0 64 -73q0 -2 -6 -21l-172 -315q0 -23 -29 -47.5t-51 -24.5q-68 0 -68 59z " />
<glyph unicode="&#x3ad;" horiz-adv-x="958" d="M12 279q0 111 92.5 203.5t204.5 123.5q-92 35 -137 96.5t-45 128.5q14 147 144 241.5t298 94.5q111 0 210.5 -30.5t99.5 -89.5q-2 -37 -27 -63t-55 -26q-20 0 -66 23q-86 45 -180 45q-109 0 -185.5 -55.5t-89.5 -132.5v-9q0 -51 50.5 -96t132.5 -45h125q43 0 65.5 -19.5 t22.5 -50.5v-8q-4 -31 -30 -54.5t-69 -23.5h-127q-117 -23 -188.5 -85t-79.5 -144q0 -78 67.5 -136t190.5 -58q117 0 238 45q70 25 96 24q55 0 55 -51q-10 -86 -142 -124t-267 -38q-180 0 -292 95.5t-112 218.5zM455 1386q0 25 10 46l172 319q31 57 80 57q63 0 63 -73 q0 -2 -6 -21l-172 -315q0 -23 -28.5 -47.5t-51.5 -24.5q-67 0 -67 59z" />
<glyph unicode="&#x3ae;" horiz-adv-x="1046" d="M4 63l107 1010q6 80 84 80q70 0 69 -68l-8 -84q115 172 324 173q147 0 254.5 -96.5t107.5 -252.5q0 -35 -129 -1243q-6 -74 -86 -74q-68 0 -68 62q121 1163 121 1194q0 125 -70.5 192.5t-170.5 67.5q-106 0 -198.5 -84t-115.5 -223l-67 -643q-6 -74 -84 -74q-70 0 -70 63 zM434 1386q0 25 10 46l172 319q31 57 80 57q63 0 64 -73q0 -2 -6 -21l-172 -315q0 -23 -29 -47.5t-51 -24.5q-68 0 -68 59z" />
<glyph unicode="&#x3af;" horiz-adv-x="520" d="M23 215q0 29 88 858q8 76 83.5 76t75.5 -66q-88 -829 -88 -850q0 -113 127 -112q84 0 84 -55v-13q-6 -72 -98 -71q-272 0 -272 233zM147 1386q0 25 11 46l172 319q31 57 80 57q63 0 63 -73q0 -2 -6 -21l-172 -315q0 -23 -28.5 -47.5t-51.5 -24.5q-68 0 -68 59z" />
<glyph unicode="&#x3b0;" horiz-adv-x="1095" d="M35 330q0 -156 111.5 -255.5t275.5 -99.5q174 0 315.5 114t159.5 282l72 706q0 59 -70 60q-76 0 -84 -76l-67 -641q-12 -125 -100.5 -208t-209.5 -83q-111 0 -178 71.5t-67 184.5q0 23 69 692q0 59 -69 60q-76 0 -84 -76q-74 -704 -74 -731zM172 1442q4 51 37 82.5 t76 31.5q39 0 65.5 -25.5t26.5 -64.5q-4 -51 -37 -82.5t-76 -31.5q-39 0 -65.5 25.5t-26.5 64.5zM487 1409q0 27 13 43l170 320q31 57 84 57q66 0 65 -60q0 -25 -6 -34l-172 -316q-41 -72 -82 -71q-72 0 -72 61zM786 1442q4 51 37 82.5t76 31.5q39 0 65.5 -25.5t26.5 -64.5 q-4 -51 -36.5 -82.5t-75.5 -31.5q-39 0 -66 25.5t-27 64.5z" />
<glyph unicode="&#x3b1;" horiz-adv-x="1280" d="M51 473q0 166 62.5 323.5t190.5 267.5t294 110q100 0 188 -46.5t123 -134.5l9 74q8 80 88 80q68 0 67 -64q-86 -829 -86 -847q0 -115 131 -115q84 0 84 -55v-13q-6 -72 -98 -71q-236 0 -264 194q-68 -86 -165 -144.5t-204 -58.5q-207 0 -313.5 142.5t-106.5 357.5z M213 485q0 -160 68.5 -266t201.5 -106q121 0 214.5 91t135 209.5t41.5 231.5q0 176 -83.5 278.5t-202.5 102.5q-121 0 -210 -96t-127 -215t-38 -230z" />
<glyph unicode="&#x3b2;" horiz-adv-x="1120" d="M-43 -403l6 53l152 1474q20 199 143 321t330 122q170 0 263 -106.5t93 -252.5q0 -88 -57.5 -173t-134.5 -128q207 -92 206 -385q0 -227 -147 -382.5t-362 -155.5q-209 0 -285 122l-51 -489q-8 -88 -88 -88q-68 0 -68 68zM193 389q0 -117 75.5 -187.5t198.5 -70.5 q152 0 240 115.5t88 267.5q0 227 -181 289q-8 0 -104 6l-57 4q-76 14 -76 64v8q6 57 90 71q37 0 72 2q66 0 73 5q76 25 122 93t46 148q0 94 -58 155.5t-153 61.5q-82 0 -140 -27.5t-91 -83t-49.5 -116.5t-26.5 -150q-69 -630 -69 -655z" />
<glyph unicode="&#x3b3;" horiz-adv-x="1060" d="M113 1067q2 49 28.5 74.5t59.5 25.5q68 0 86 -82l196 -829l373 834q37 78 94 77q31 0 52.5 -19.5t21.5 -49.5v-11q-33 -80 -238 -509q-209 -440 -243 -539l-43 -420q-10 -96 -94 -96q-70 0 -70 78l43 438z" />
<glyph unicode="&#x3b4;" horiz-adv-x="1148" d="M45 440q0 184 124 341t302 214q-80 47 -129 119t-49 146v20q14 125 126.5 210t313.5 85q84 0 185.5 -36t101.5 -99q-2 -23 -23.5 -43.5t-44.5 -20.5q-16 0 -69 17q-2 0 -4 1t-5 1q-98 33 -163 32q-123 0 -191.5 -40.5t-75.5 -106.5v-10q0 -61 61.5 -125t160.5 -105 q369 -154 368 -475q0 -244 -153.5 -416t-393.5 -172q-209 0 -325.5 132t-116.5 331zM209 451q0 -143 75.5 -235.5t215.5 -92.5q176 0 276.5 123t100.5 293q0 150 -80 238.5t-222 88.5q-166 0 -266 -126.5t-100 -288.5z" />
<glyph unicode="&#x3b5;" horiz-adv-x="958" d="M12 279q0 111 92.5 203.5t204.5 123.5q-92 35 -137 96.5t-45 128.5q14 147 144 241.5t298 94.5q111 0 210.5 -30.5t99.5 -89.5q-2 -37 -27 -63t-55 -26q-20 0 -66 23q-86 45 -180 45q-109 0 -185.5 -55.5t-89.5 -132.5v-9q0 -51 50.5 -96t132.5 -45h125q43 0 65.5 -19.5 t22.5 -50.5v-8q-4 -31 -30 -54.5t-69 -23.5h-127q-117 -23 -188.5 -85t-79.5 -144q0 -78 67.5 -136t190.5 -58q117 0 238 45q70 25 96 24q55 0 55 -51q-10 -86 -142 -124t-267 -38q-180 0 -292 95.5t-112 218.5z" />
<glyph unicode="&#x3b6;" horiz-adv-x="1085" d="M49 451q0 281 204 560t460 421h-359q-39 0 -64.5 17t-25.5 46v8q2 37 33 56.5t74 19.5h575q70 0 70 -59v-13q-4 -31 -22.5 -48t-59.5 -32q-80 -31 -194.5 -120.5t-230.5 -215.5t-197 -292t-81 -322q0 -68 11.5 -120t39 -89t50 -59.5t72 -43t75 -27.5t84.5 -23 q63 -16 104.5 -32.5t84.5 -44.5t63.5 -71t20.5 -100q-10 -98 -61.5 -181t-121.5 -83q-25 0 -42 19.5t-17 43.5q4 35 44 92.5t46 94.5q0 37 -34 65.5t-68.5 40.5t-104 30.5t-116 34t-112 51.5t-104.5 81t-67.5 122t-28.5 173z" />
<glyph unicode="&#x3b7;" horiz-adv-x="1046" d="M4 63l107 1010q6 80 84 80q70 0 69 -68l-8 -84q115 172 324 173q147 0 254.5 -96.5t107.5 -252.5q0 -35 -129 -1243q-6 -74 -86 -74q-68 0 -68 62q121 1163 121 1194q0 125 -70.5 192.5t-170.5 67.5q-106 0 -198.5 -84t-115.5 -223l-67 -643q-6 -74 -84 -74q-70 0 -70 63 z" />
<glyph unicode="&#x3b8;" horiz-adv-x="1179" d="M70 616q0 145 33.5 302t99 305.5t184.5 245t268 96.5q115 0 200 -59.5t130 -159t66.5 -210t21.5 -233.5q0 -113 -20.5 -234.5t-65.5 -244.5t-111.5 -220.5t-168 -158.5t-222.5 -61q-115 0 -198.5 55t-129.5 149.5t-66.5 200.5t-20.5 227zM229 629q0 -92 13.5 -174 t43 -158t86 -121t134.5 -45q109 0 191.5 85t125.5 213t64.5 249t21.5 223q0 92 -12 176t-40 162t-82 125t-128 47q-111 0 -196.5 -86t-131 -215t-68 -253t-22.5 -228zM326 770q6 94 82 94h352q61 0 61 -67q-8 -84 -78 -84h-352q-65 0 -65 57z" />
<glyph unicode="&#x3b9;" horiz-adv-x="520" d="M23 215q0 29 88 858q8 76 83.5 76t75.5 -66q-88 -829 -88 -850q0 -113 127 -112q84 0 84 -55v-13q-6 -72 -98 -71q-272 0 -272 233z" />
<glyph unicode="&#x3ba;" horiz-adv-x="1067" d="M4 63l105 1008q8 76 86 76q68 0 67 -60v-16l-51 -489l598 561q23 18 51 18q31 0 52.5 -17.5t21.5 -45.5v-8q-2 -35 -49 -74l-359 -361l318 -505q23 -55 22 -76q-4 -39 -25.5 -59.5t-52.5 -20.5q-47 0 -69 47l-324 528q-43 -35 -104.5 -95t-100.5 -93l-32 -307 q-6 -74 -84 -74q-70 0 -70 63z" />
<glyph unicode="&#x3bb;" horiz-adv-x="1028" d="M8 55l12 47l453 942l-113 447q-2 8 -2 25q2 31 30 49t63 18q66 0 86 -88l329 -1376q4 -25 4 -33q-6 -86 -77 -86q-70 0 -86 70l-175 747l-356 -741q-37 -76 -100 -76q-68 0 -68 55z" />
<glyph unicode="&#x3bc;" horiz-adv-x="1081" d="M-41 -424l152 1485q8 76 84 76q66 0 65 -60q-41 -408 -67 -655q-6 -57 -7 -62q0 -98 64.5 -158.5t165.5 -60.5q137 0 230 95.5t110 236.5l61 588q8 76 84 76q66 0 66 -60l-103 -989q-8 -88 -82 -88q-68 0 -67 66q2 23 4 52t2 38q-129 -172 -340 -172q-66 0 -128.5 31.5 t-92.5 84.5l-54 -508q-8 -76 -83 -75q-64 0 -64 59z" />
<glyph unicode="&#x3bd;" horiz-adv-x="1011" d="M109 1067q10 72 86 72q61 0 79 -90l172 -777l340 779q39 88 104.5 88t65.5 -60q0 -25 -8 -45l-436 -973q-29 -61 -98 -61q-61 0 -78 61l-225 971q-2 12 -2 35z" />
<glyph unicode="&#x3be;" horiz-adv-x="958" d="M47 352q0 168 132 308.5t296 181.5q-233 51 -233 205q0 113 128 222t281 146h-327q-39 0 -65 17.5t-26 46.5q6 84 107 84h596q70 0 70 -60q-4 -47 -20.5 -70.5t-55.5 -27.5q-57 -6 -133 -28.5t-161 -61.5t-147.5 -103.5t-74.5 -140.5q2 -53 52 -89t104.5 -48t101.5 -12 q45 0 75.5 -20.5t30.5 -55.5q-2 -41 -39 -66.5t-80 -25.5q-143 0 -279 -95.5t-157 -259.5q6 -66 35 -113.5t81 -76.5t96 -45.5t116 -34.5t104 -31q74 -25 123 -84t49 -129q-8 -98 -61 -190t-123 -92q-25 0 -42 19.5t-17 43.5q4 35 44 92.5t46 94.5q0 72 -90 108 q-39 14 -133.5 40t-149.5 47.5t-121.5 60t-99.5 100t-33 143.5z" />
<glyph unicode="&#x3bf;" horiz-adv-x="1177" d="M53 489q0 172 67.5 328t200 256.5t297.5 100.5q211 0 324 -152t113 -373q0 -268 -158 -470t-405 -202q-211 0 -325 146.5t-114 365.5zM219 518q0 -162 73 -280.5t216 -118.5q180 0 282.5 155.5t102.5 337.5q0 166 -74 290t-217 124q-96 0 -172 -49t-121 -126t-67.5 -163 t-22.5 -170z" />
<glyph unicode="&#x3c0;" horiz-adv-x="1114" d="M4 63l107 1010q4 33 25.5 56.5t51.5 23.5h727q68 0 68 -70v-12l-106 -997q-6 -74 -82 -74t-76 63l98 936h-555l-98 -925q-6 -74 -90 -74q-70 0 -70 63z" />
<glyph unicode="&#x3c1;" horiz-adv-x="1148" d="M-43 -395l100 973q27 258 177.5 427t381.5 169q211 0 316.5 -134.5t105.5 -363.5q0 -172 -59 -327.5t-188 -263.5t-299 -108q-94 0 -181.5 48.5t-138.5 146.5l-61 -567q-8 -76 -88 -76q-66 0 -66 63v13zM213 502q0 -182 86 -279.5t211 -97.5q123 0 212 89t125 202.5 t36 228.5q0 160 -66.5 271.5t-206.5 111.5q-102 0 -182 -49t-125 -128t-67.5 -168t-22.5 -181z" />
<glyph unicode="&#x3c2;" horiz-adv-x="1161" d="M84 471q0 276 194.5 483t462.5 207q145 0 232 -55q63 -39 63 -72q-4 -39 -26.5 -65.5t-55.5 -26.5q-31 0 -114.5 25.5t-124.5 25.5q-207 0 -335 -158.5t-128 -361.5q0 -96 33.5 -161.5t89 -97.5t121 -52.5t132 -36.5t122 -39t89 -70t33.5 -118q0 -96 -49 -197.5 t-129 -101.5q-25 0 -43 20.5t-18 44.5q4 35 46 92.5t46 91.5v11q0 53 -47 77.5t-152 51.5q-57 14 -84.5 22t-83 29.5t-86 42t-71.5 58.5t-62.5 82t-38 107.5t-16.5 141.5z" />
<glyph unicode="&#x3c3;" horiz-adv-x="1302" d="M55 496q0 272 163 468.5t415 196.5l557 -2q90 -8 90 -74q-8 -84 -96 -84q-29 0 -289 23q76 -66 119 -174.5t43 -228.5q0 -258 -164 -451t-412 -193q-209 0 -317.5 149t-108.5 370zM217 520q0 -162 72.5 -280.5t216.5 -118.5q180 0 286.5 153.5t106.5 331.5 q0 164 -74.5 289t-218.5 125q-123 0 -215 -83t-133 -194.5t-41 -222.5z" />
<glyph unicode="&#x3c4;" horiz-adv-x="991" d="M-20 1061q8 78 73 78h713q74 0 74 -56q-6 -84 -84 -84h-285q-74 -686 -74 -735q0 -76 28 -109.5t101 -33.5q84 0 84 -55v-13q-6 -72 -98 -71q-147 0 -207.5 68.5t-60.5 207.5q0 55 73 739h-268q-69 1 -69 64z" />
<glyph unicode="&#x3c5;" horiz-adv-x="1095" d="M35 330q0 27 74 731q8 76 84 76q70 0 69 -60q-70 -670 -69 -692q0 -113 67.5 -184.5t177.5 -71.5q121 0 209 83t101 208l67 641q8 76 84 76q70 0 70 -60l-72 -706q-18 -168 -159.5 -282t-315.5 -114q-164 0 -275.5 99.5t-111.5 255.5z" />
<glyph unicode="&#x3c6;" horiz-adv-x="1503" d="M53 477q0 205 102.5 392.5t274.5 285.5q16 10 41 10q27 0 47.5 -14t20.5 -37q0 -35 -54 -76q-127 -96 -201.5 -246.5t-74.5 -302.5q0 -141 85 -241.5t253 -122.5q82 764 145 870q94 160 318 160q176 0 270 -141.5t94 -333.5q0 -293 -199.5 -489.5t-488.5 -206.5 q-6 -63 -20.5 -190.5t-20.5 -190.5q-10 -78 -84 -78q-70 0 -69 61v17l40 381q-217 8 -348 151t-131 342zM700 125q229 10 370.5 167t141.5 378q0 139 -53 245.5t-164 106.5q-139 0 -196 -135q-23 -55 -99 -762z" />
<glyph unicode="&#x3c7;" horiz-adv-x="1046" d="M-45 -428q2 35 25 76l434 735l-246 623q-10 31 -10 51q8 86 84 86q51 0 73 -49l205 -539l322 535q31 49 80 49q31 0 50 -19.5t19 -52.5q-2 -37 -20 -66l-381 -618l278 -731q10 -35 11 -51q-2 -27 -13 -43q-20 -35 -65 -35q-63 0 -88 69l-228 627l-366 -635 q-39 -66 -107 -65q-43 0 -55 32q-2 7 -2 21z" />
<glyph unicode="&#x3c8;" horiz-adv-x="1390" d="M53 487q0 12 62 588q12 98 86 99q33 0 54 -26t21 -71q-66 -598 -65 -604q0 -350 313 -356l121 1093q8 82 86 82q41 0 54.5 -21.5t13.5 -60.5l-121 -1093q178 2 280.5 126t124.5 326q4 45 30 241t32 267q8 94 84 94q33 0 54.5 -22.5t21.5 -56.5q0 -18 -8.5 -80t-24 -182.5 t-27.5 -245.5q-27 -262 -181.5 -432t-399.5 -175l-37 -348q-12 -109 -88 -108q-68 0 -68 86q0 6 2 31l37 339q-221 4 -339 145.5t-118 364.5z" />
<glyph unicode="&#x3c9;" horiz-adv-x="1359" d="M43 365q0 213 90 424.5t246 338.5q25 18 63 19q25 0 38.5 -15.5t13.5 -37.5v-9q-2 -20 -31 -49l-12 -12q-119 -129 -185.5 -301t-66.5 -346q0 -119 43 -183.5t106 -64.5q61 0 118.5 65.5t82.5 182.5q6 66 20.5 199t20.5 196q4 41 31.5 64.5t60.5 23.5q29 0 48.5 -18.5 t19.5 -53.5v-8l-43 -403q2 -115 46 -181.5t101 -66.5q63 0 110.5 48t71 121t33.5 138.5t10 120.5q0 270 -145 471q-25 35 -25 55q4 31 21.5 49.5t44.5 18.5q39 0 59 -18q197 -193 197 -543q0 -113 -17.5 -212t-57.5 -192.5t-117.5 -148.5t-184.5 -55q-184 0 -246 237 q-113 -236 -295 -235q-111 0 -190.5 106.5t-79.5 274.5z" />
<glyph unicode="&#x3ca;" horiz-adv-x="600" d="M-76 1442q4 51 37 82.5t76 31.5q39 0 65.5 -25.5t26.5 -64.5q-4 -51 -37 -82.5t-76 -31.5q-39 0 -65.5 25.5t-26.5 64.5zM23 215q0 -233 272 -233q92 0 98 71v13q0 55 -84 55q-127 0 -127 112q0 20 88 850q0 66 -75.5 66t-83.5 -76q-88 -829 -88 -858zM334 1442 q4 51 36.5 82.5t75.5 31.5q39 0 66 -25.5t27 -64.5q-4 -51 -37 -82.5t-76 -31.5q-39 0 -65.5 25.5t-26.5 64.5z" />
<glyph unicode="&#x3cb;" horiz-adv-x="1095" d="M35 330q0 -156 111.5 -255.5t275.5 -99.5q174 0 315.5 114t159.5 282l72 706q0 59 -70 60q-76 0 -84 -76l-67 -641q-12 -125 -100.5 -208t-209.5 -83q-111 0 -178 71.5t-67 184.5q0 23 69 692q0 59 -69 60q-76 0 -84 -76q-74 -704 -74 -731zM260 1442q4 51 37 82.5 t76 31.5q39 0 65.5 -25.5t26.5 -64.5q-4 -51 -37 -82.5t-76 -31.5q-39 0 -65.5 25.5t-26.5 64.5zM670 1442q4 51 36.5 82.5t75.5 31.5q39 0 65.5 -25.5t26.5 -64.5q-4 -51 -36.5 -82.5t-75.5 -31.5q-39 0 -65.5 25.5t-26.5 64.5z" />
<glyph unicode="&#x3cc;" horiz-adv-x="1177" d="M53 489q0 172 67.5 328t200 256.5t297.5 100.5q211 0 324 -152t113 -373q0 -268 -158 -470t-405 -202q-211 0 -325 146.5t-114 365.5zM219 518q0 -162 73 -280.5t216 -118.5q180 0 282.5 155.5t102.5 337.5q0 166 -74 290t-217 124q-96 0 -172 -49t-121 -126t-67.5 -163 t-22.5 -170zM557 1386q0 25 10 46l172 319q31 57 80 57q63 0 64 -73q0 -2 -6 -21l-172 -315q0 -23 -29 -47.5t-51 -24.5q-68 0 -68 59z" />
<glyph unicode="&#x3cd;" horiz-adv-x="1095" d="M35 330q0 27 74 731q8 76 84 76q70 0 69 -60q-70 -670 -69 -692q0 -113 67.5 -184.5t177.5 -71.5q121 0 209 83t101 208l67 641q8 76 84 76q70 0 70 -60l-72 -706q-18 -168 -159.5 -282t-315.5 -114q-164 0 -275.5 99.5t-111.5 255.5zM475 1386q0 25 10 46l172 319 q31 57 80 57q63 0 64 -73q0 -2 -6 -21l-172 -315q0 -23 -29 -47.5t-51 -24.5q-68 0 -68 59z" />
<glyph unicode="&#x3ce;" horiz-adv-x="1359" d="M43 365q0 213 90 424.5t246 338.5q25 18 63 19q25 0 38.5 -15.5t13.5 -37.5v-9q-2 -20 -31 -49l-12 -12q-119 -129 -185.5 -301t-66.5 -346q0 -119 43 -183.5t106 -64.5q61 0 118.5 65.5t82.5 182.5q6 66 20.5 199t20.5 196q4 41 31.5 64.5t60.5 23.5q29 0 48.5 -18.5 t19.5 -53.5v-8l-43 -403q2 -115 46 -181.5t101 -66.5q63 0 110.5 48t71 121t33.5 138.5t10 120.5q0 270 -145 471q-25 35 -25 55q4 31 21.5 49.5t44.5 18.5q39 0 59 -18q197 -193 197 -543q0 -113 -17.5 -212t-57.5 -192.5t-117.5 -148.5t-184.5 -55q-184 0 -246 237 q-113 -236 -295 -235q-111 0 -190.5 106.5t-79.5 274.5zM645 1384q0 25 10 46l172 319q31 57 80 57q63 0 64 -73q0 -2 -6 -21l-172 -315q0 -23 -29 -47.5t-51 -24.5q-68 0 -68 59z" />
<glyph unicode="&#x2000;" horiz-adv-x="913" />
<glyph unicode="&#x2001;" horiz-adv-x="1828" />
<glyph unicode="&#x2002;" horiz-adv-x="913" />
<glyph unicode="&#x2003;" horiz-adv-x="1828" />
<glyph unicode="&#x2004;" horiz-adv-x="608" />
<glyph unicode="&#x2005;" horiz-adv-x="456" />
<glyph unicode="&#x2006;" horiz-adv-x="303" />
<glyph unicode="&#x2007;" horiz-adv-x="303" />
<glyph unicode="&#x2008;" horiz-adv-x="227" />
<glyph unicode="&#x2009;" horiz-adv-x="364" />
<glyph unicode="&#x200a;" horiz-adv-x="100" />
<glyph unicode="&#x2010;" horiz-adv-x="792" d="M66 557q2 39 29.5 63.5t68.5 24.5h422q80 0 80 -70q-8 -86 -97 -86h-422q-81 0 -81 68z" />
<glyph unicode="&#x2011;" horiz-adv-x="792" d="M66 557q2 39 29.5 63.5t68.5 24.5h422q80 0 80 -70q-8 -86 -97 -86h-422q-81 0 -81 68z" />
<glyph unicode="&#x2012;" horiz-adv-x="792" d="M66 557q2 39 29.5 63.5t68.5 24.5h422q80 0 80 -70q-8 -86 -97 -86h-422q-81 0 -81 68z" />
<glyph unicode="&#x2013;" horiz-adv-x="1435" d="M59 551q4 43 30 68.5t67 25.5h1036q80 0 80 -70q-8 -86 -96 -86h-1037q-80 1 -80 62z" />
<glyph unicode="&#x2014;" horiz-adv-x="1841" d="M59 551q4 43 30 68.5t67 25.5h1441q80 0 80 -70q-8 -86 -96 -86h-1442q-80 1 -80 62z" />
<glyph unicode="&#x2018;" horiz-adv-x="526" d="M154 1479q2 29 29.5 48t58.5 19q43 0 59 -41l115 -360q6 -8 6 -25q-2 -27 -31 -49t-55 -22q-55 0 -76 71l-102 334q-4 17 -4 25z" />
<glyph unicode="&#x2019;" horiz-adv-x="526" d="M117 1114q0 16 10 31l192 360q23 41 68 41q29 0 50.5 -17.5t21.5 -43.5q0 -20 -8 -31l-172 -334q-39 -72 -93 -71q-25 0 -47 20t-22 45z" />
<glyph unicode="&#x201a;" horiz-adv-x="526" d="M-20 -209q2 20 8 31l170 334q35 66 96 65q25 0 45 -17.5t20 -41.5q0 -20 -10 -31l-190 -360q-25 -41 -68 -41q-29 0 -50 17t-21 44z" />
<glyph unicode="&#x201c;" horiz-adv-x="860" d="M154 1479q2 29 29.5 48t58.5 19q43 0 59 -41l115 -360q6 -8 6 -25q-2 -27 -31 -49t-55 -22q-55 0 -76 71l-102 334q-4 17 -4 25zM502 1479q2 29 29.5 48t58.5 19q43 0 59 -41l115 -360q6 -8 6 -25q-2 -27 -30.5 -49t-55.5 -22q-55 0 -76 71l-102 334q-4 17 -4 25z" />
<glyph unicode="&#x201d;" horiz-adv-x="860" d="M117 1114q0 16 10 31l192 360q23 41 68 41q29 0 50.5 -17.5t21.5 -43.5q0 -20 -8 -31l-172 -334q-39 -72 -93 -71q-25 0 -47 20t-22 45zM465 1114q0 16 10 31l193 360q23 41 67 41q29 0 50.5 -17.5t21.5 -43.5q0 -20 -8 -31l-172 -334q-39 -72 -92 -71q-25 0 -47.5 20 t-22.5 45z" />
<glyph unicode="&#x201e;" horiz-adv-x="858" d="M-20 -209q2 20 8 31l170 334q14 27 41.5 47t56.5 20q25 0 44 -18.5t19 -42.5q0 -20 -10 -31l-190 -360q-25 -41 -68 -41q-29 0 -50 17t-21 44zM305 -209q2 20 8 31l172 334q35 66 99 65q25 0 44 -17.5t19 -41.5q0 -20 -10 -31l-191 -360q-25 -41 -67 -41q-31 0 -52.5 17 t-21.5 44z" />
<glyph unicode="&#x2020;" horiz-adv-x="1130" d="M111 1053q8 84 84 84h301l30 299q4 45 30 73.5t58 28.5q63 0 64 -76q0 -18 -2 -26l-31 -299h305q68 0 68 -66q-8 -84 -84 -84h-305l-92 -887q-12 -100 -82 -100q-29 0 -49.5 21.5t-20.5 60.5q0 4 1 10t1 8l92 887h-301q-67 0 -67 66z" />
<glyph unicode="&#x2021;" horiz-adv-x="1130" d="M51 475q6 88 82 88h301l45 424h-301q-68 0 -67 66q8 86 84 86h301l30 299q4 45 30 72.5t58 27.5q63 0 64 -76q0 -16 -33 -323h305q68 0 68 -62q-8 -90 -84 -90h-305l-45 -424h305q68 0 67 -61q-6 -88 -82 -88h-305l-34 -322q-8 -100 -82 -100q-29 0 -48.5 23.5 t-19.5 62.5l35 336h-301q-68 0 -68 61z" />
<glyph unicode="&#x2022;" horiz-adv-x="1161" d="M188 662q0 168 116 283.5t276 115.5q143 0 230 -88t87 -225q0 -166 -117.5 -282t-275.5 -116q-141 0 -228.5 87.5t-87.5 224.5z" />
<glyph unicode="&#x2026;" horiz-adv-x="1103" d="M10 90q4 51 37 83t76 32q39 0 65.5 -25.5t26.5 -64.5q-4 -51 -37 -83t-76 -32q-39 0 -65.5 25.5t-26.5 64.5zM358 90q4 51 37 83t76 32q39 0 65.5 -25.5t26.5 -64.5q-4 -51 -36.5 -83t-75.5 -32q-39 0 -66 25.5t-27 64.5zM686 90q4 51 37 83t76 32q39 0 65.5 -25.5 t26.5 -64.5q-4 -51 -37 -83t-76 -32q-39 0 -65.5 25.5t-26.5 64.5z" />
<glyph unicode="&#x202f;" horiz-adv-x="364" />
<glyph unicode="&#x2030;" horiz-adv-x="2469" d="M121 1137q0 172 111.5 293.5t271.5 121.5q141 0 222 -95t81 -238q0 -172 -111.5 -298t-271.5 -126q-141 0 -222 98.5t-81 243.5zM260 1141q0 -94 45 -162t131 -68q111 0 175.5 93.5t64.5 201.5q0 94 -48 162t-136 68q-109 0 -170.5 -93t-61.5 -202zM365 8q0 27 16 64 l709 1429q31 61 84 62q55 0 55 -52q0 -27 -17 -67q-49 -106 -367.5 -745.5t-355.5 -698.5q-31 -43 -71 -43q-53 0 -53 51zM793 305q0 176 111.5 300t275.5 124q139 0 217 -96t78 -240q0 -174 -107.5 -297t-267.5 -123q-143 0 -225 94.5t-82 237.5zM932 309q0 -94 45 -157.5 t135 -63.5q109 0 171.5 91t62.5 198q0 94 -46.5 164.5t-132.5 70.5q-111 0 -173 -96t-62 -207zM1602 305q0 176 111.5 300t275.5 124q139 0 217 -96t78 -240q0 -174 -108 -297t-267 -123q-143 0 -225 94.5t-82 237.5zM1741 313q0 -94 47 -159.5t133 -65.5q109 0 171 91 t62 198q0 94 -46 164.5t-132 70.5q-111 0 -173 -94t-62 -205z" />
<glyph unicode="&#x2039;" horiz-adv-x="1361" d="M59 557v10q6 59 80 92l979 435q39 16 64 16q18 0 35 -6q31 -12 30 -45v-10q-6 -55 -78 -88l-886 -406l784 -401q66 -35 66 -86v-9q-6 -59 -76 -59q-33 0 -76 18l-860 453q-62 33 -62 86z" />
<glyph unicode="&#x203a;" horiz-adv-x="1361" d="M8 63v11q6 55 76 88l868 385l-784 422q-57 31 -57 75v11q6 63 77 63q23 0 48 -10l880 -455q80 -41 80 -90q-6 -61 -117 -114l-958 -437q-25 -10 -45 -10q-68 0 -68 61z" />
<glyph unicode="&#x205f;" horiz-adv-x="456" />
<glyph unicode="&#x20ac;" horiz-adv-x="1566" d="M70 590q6 86 82 86h96q0 111 14 160h-94q-68 0 -68 61q6 82 84 82h115q82 256 277.5 424t472.5 168q252 0 413 -168q33 -31 33 -68q-4 -41 -27.5 -64.5t-54.5 -23.5q-41 0 -61 25q-117 129 -328 129q-201 0 -342 -118t-209 -304h713q72 0 71 -64q-6 -80 -88 -79h-735 q-12 -70 -12 -160h524q72 0 72 -60q-6 -84 -86 -84h-494q35 -176 152 -285.5t305 -109.5q195 0 350 139q25 23 53 23q66 0 66 -66q-6 -59 -39 -86q-215 -170 -457 -170q-266 0 -422.5 156t-189.5 399h-119q-67 1 -67 58z" />
<glyph unicode="&#x2122;" horiz-adv-x="1415" d="M158 1503q2 41 41 41h379q35 0 34 -31q-2 -43 -43 -43h-151l-68 -649q-6 -51 -43 -51q-33 0 -33 37v14l68 649h-152q-32 0 -32 33zM457 807l174 688q14 63 69 64q57 0 68 -56l104 -590l240 590q25 55 76 56q55 0 57 -64l33 -670l-2 -10q-4 -35 -37 -35q-35 0 -39 41 l-26 633l-269 -633q-20 -45 -47 -45q-29 0 -37 45l-129 633l-157 -633q-12 -43 -50 -43q-28 0 -28 29z" />
<glyph unicode="&#x2126;" horiz-adv-x="1464" d="M98 858q0 293 205 501t492 208q274 0 422.5 -165t148.5 -403q0 -295 -205 -493.5t-499 -198.5q-272 0 -418 160t-146 391zM119 61q8 88 78 89h907q63 0 63 -60q0 -39 -20.5 -64.5t-56.5 -25.5h-908q-63 0 -63 61zM254 879q0 -180 110.5 -303t317.5 -123 q227 0 379.5 153.5t152.5 368.5q0 182 -114.5 313t-319.5 131q-225 0 -375.5 -163.5t-150.5 -376.5z" />
<glyph unicode="&#x2206;" horiz-adv-x="1392" d="M4 45v8q4 20 12 35l631 1339q43 94 127 95q88 0 107 -95l366 -1339q4 -20 4 -31v-8q-6 -49 -127 -49h-1030q-90 0 -90 45zM213 162h850l-311 1149z" />
<glyph unicode="&#xe000;" horiz-adv-x="1135" d="M0 1135h1135v-1135h-1135v1135z" />
<glyph horiz-adv-x="1210" d="M61 512q0 176 64.5 340t200 277.5t309.5 113.5h8q215 0 325.5 -153.5t110.5 -380.5q0 -180 -65.5 -345t-200.5 -277t-307 -112q-215 0 -330 155t-115 382zM225 537q0 -170 77 -287t220 -117q129 0 222.5 95.5t131 216t37.5 237.5q0 170 -74.5 284.5t-213.5 114.5 q-131 0 -226.5 -93t-134.5 -212.5t-39 -238.5z" />
<glyph horiz-adv-x="813" d="M127 1057v8q8 66 86 86q313 86 322 86q49 0 61 -41q2 -6 2 -35q0 -41 -2 -69l-107 -1004q-4 -39 -28.5 -63.5t-61.5 -24.5q-35 0 -55 20.5t-20 55.5v12l102 971l-207 -58q-20 -4 -26 -4q-29 0 -47.5 16.5t-18.5 43.5z" />
<glyph horiz-adv-x="1150" d="M57 66v8q2 33 39 76q514 406 617 507q96 96 104 181q2 20 2 47q0 98 -71.5 156.5t-169.5 58.5q-109 0 -195 -73t-98 -202q-4 -35 -29 -66.5t-63 -31.5q-37 0 -56.5 29.5t-19.5 68.5v11q20 188 165.5 304.5t319.5 116.5q158 0 272.5 -96t114.5 -250q0 -61 -28.5 -128.5 t-65.5 -124t-105.5 -126t-115.5 -111.5t-131 -106.5t-116 -86t-103 -72.5h534q70 0 70 -66v-10q-10 -80 -86 -80h-678q-107 0 -107 66z" />
<glyph horiz-adv-x="1105" d="M35 -8q4 39 26.5 60.5t51.5 21.5q53 0 71 -54q63 -195 248 -194q141 0 234.5 97t93.5 231q0 96 -53.5 169.5t-155.5 92.5q-25 4 -119 4q-86 2 -86 67v9q6 74 100 73q96 0 117 4q100 20 156.5 115.5t56.5 200.5q0 100 -58.5 157.5t-164.5 57.5q-88 0 -157.5 -59.5 t-78.5 -145.5q-10 -102 -90 -102q-78 0 -77 84q0 4 1 12t1 12q14 135 139 243.5t289 108.5q170 0 267 -99t97 -253q0 -221 -207 -391q190 -127 191 -350q0 -215 -145.5 -358.5t-346.5 -143.5q-145 0 -273 90t-128 221v19z" />
<glyph horiz-adv-x="1222" d="M37 205q4 55 35 90l624 862q68 96 168 96q51 0 84 -33.5t33 -91.5q0 -4 -1 -11t-1 -11l-86 -830h98q68 0 68 -63q0 -39 -19.5 -64.5t-56.5 -25.5h-106l-31 -293q-10 -96 -88 -96q-70 0 -70 80v16l31 291h-584q-47 0 -72.5 23.5t-25.5 60.5zM236 276h499l84 805z" />
<glyph horiz-adv-x="1236" d="M20 -53q2 35 25 54t49 19q37 0 60 -34q41 -63 122.5 -103.5t165.5 -40.5q154 0 262.5 119t108.5 266q0 127 -78 216t-225 89q-57 0 -117.5 -17t-89.5 -17q-76 0 -76 63v12q0 12 164 574q25 82 127 82h438q31 0 48.5 -22.5t17.5 -55.5v-10q-10 -78 -84 -78h-422l-108 -395 q68 16 157 16q201 0 308.5 -122t107.5 -296q0 -238 -166 -407.5t-397 -169.5q-164 0 -281 78.5t-117 166.5v13z" />
<glyph horiz-adv-x="1177" d="M72 446q0 526 624 1045q37 31 74 31q33 0 54.5 -18.5t21.5 -51.5v-12q-4 -29 -27 -49q-141 -119 -272 -267.5t-193 -253.5q104 109 293 109q158 0 261.5 -117t103.5 -303q0 -229 -155 -406.5t-376 -177.5q-197 0 -303 135t-106 336zM229 446q0 -133 73 -226t204 -93 q154 18 251 136t97 267q0 125 -72.5 211t-214.5 86q-152 0 -245 -117t-93 -264z" />
<glyph horiz-adv-x="1138" d="M59 1128q8 96 103 97h725q37 0 61.5 -23.5t24.5 -62.5q-2 -33 -19 -64l-678 -1284q-47 -84 -108.5 -84t-61.5 66v14q4 33 15 49l649 1223h-625q-86 -1 -86 69z" />
<glyph horiz-adv-x="1138" d="M49 385q0 145 85 268t216 183q-164 106 -164 305q0 176 137.5 298t307.5 122q156 0 254 -91.5t98 -238.5q0 -229 -235 -383q102 -53 161.5 -149.5t59.5 -213.5q0 -207 -153.5 -358.5t-350.5 -151.5q-188 0 -302 114t-114 296zM225 410q0 -119 70 -196t188 -77 q137 0 225.5 107.5t88.5 240.5q0 117 -71 195t-179 78q-137 0 -229.5 -108.5t-92.5 -239.5zM350 1141q0 -98 57.5 -164t155.5 -66q111 0 179.5 93.5t68.5 201.5q0 94 -58.5 148.5t-142.5 54.5q-111 0 -185.5 -81t-74.5 -187z" />
<glyph horiz-adv-x="1150" d="M57 674q0 233 157 402t384 169q199 0 311.5 -133t112.5 -346q0 -322 -183.5 -604.5t-473.5 -499.5q-31 -23 -66 -22q-29 0 -47.5 17t-18.5 42q4 47 48 86q154 123 289 273.5t178 246.5q-111 -90 -271 -90q-197 0 -308.5 134.5t-111.5 324.5zM221 674q0 -141 80 -223 t201 -82q166 0 265 119.5t99 281.5q0 133 -72.5 225t-218.5 92q-160 0 -257 -128.5t-97 -284.5z" />
<glyph horiz-adv-x="1357" d="M6 61v11q2 6 12 41l566 968q43 92 129 93q84 0 108 -93l377 -968q6 -12 6 -29q0 -4 -1 -8t-1 -6q-6 -70 -76 -70q-57 0 -69 49l-113 262h-635l-145 -233q-35 -78 -98 -78q-60 0 -60 61zM399 467h488l-199 506z" />
<glyph horiz-adv-x="1150" d="M8 74q0 16 2 26l99 949q12 98 94 98h375q150 0 249 -61.5t99 -186.5q0 -111 -67.5 -185.5t-172.5 -107.5q133 -4 210 -82t77 -182q0 -152 -130 -247t-284 -95h-440q-68 0 -90 16q-21 17 -21 58zM166 150h346q131 0 208 51t85 143q0 88 -84 130t-201 42h-315zM219 655h246 q281 0 299 203q0 139 -213 139h-295z" />
<glyph horiz-adv-x="1263" d="M66 506q0 291 204.5 483.5t491.5 192.5q250 0 416 -168q31 -31 30 -68q-4 -41 -27.5 -64.5t-54.5 -23.5q-41 0 -61 25q-117 129 -328 129q-209 0 -356.5 -151.5t-147.5 -354.5q0 -178 116 -273.5t300 -95.5q195 0 350 139q25 23 54 23q66 0 65 -66q-6 -59 -39 -86 q-215 -170 -456 -170q-252 0 -404.5 146.5t-152.5 382.5z" />
<glyph horiz-adv-x="1318" d="M6 57q0 16 2 27l101 965q12 98 129 98h399q205 0 342 -132t137 -366q0 -299 -184 -474t-449 -175h-397q-45 0 -62.5 11t-17.5 46zM166 150h321q219 0 343 138t124 349q0 182 -100 271t-248 89h-350z" />
<glyph horiz-adv-x="976" d="M6 57q0 20 2 35l103 963q8 92 92 92h622q68 0 68 -76q-6 -74 -82 -74h-557l-35 -319h459q68 0 67 -78q-6 -72 -81 -72h-459l-41 -378h573q80 0 80 -62q-6 -88 -94 -88h-639q-45 0 -61.5 12t-16.5 45z" />
<glyph horiz-adv-x="897" d="M6 53l103 996q12 98 94 98h604q68 0 67 -60q-6 -90 -81 -90h-537l-45 -417h405q68 0 68 -78q-6 -74 -84 -74h-405l-37 -367q-6 -61 -84 -61q-68 0 -68 53z" />
<glyph horiz-adv-x="1439" d="M61 496q0 274 200 474.5t462 200.5q115 0 225.5 -48t190.5 -140q27 -27 26 -68q-4 -33 -27.5 -59.5t-60.5 -26.5q-35 0 -67 33q-145 145 -314 146q-201 0 -334 -156t-133 -348q0 -156 110 -262.5t273 -106.5q156 0 292 86t153 240q4 29 -4 31h-318q-82 0 -82 61v12 q6 76 103 76h342q117 0 116 -125q0 -240 -192.5 -389.5t-433.5 -149.5q-236 0 -381.5 155t-145.5 364z" />
<glyph horiz-adv-x="1150" d="M6 63l107 1014q6 76 82 76q68 0 67 -63l-45 -428h641l45 415q8 76 82 76q70 0 70 -63l-107 -1016q-6 -74 -84 -74q-68 0 -67 63l47 447h-641l-47 -436q-6 -74 -80 -74q-70 0 -70 63z" />
<glyph horiz-adv-x="360" d="M6 63l107 1012q6 76 82 76q68 0 67 -64l-106 -1011q-8 -76 -82 -76q-68 0 -68 63z" />
<glyph horiz-adv-x="851" d="M12 125v8q10 78 78 78q16 0 82 -47q63 -47 143 -47q88 0 142.5 50t64.5 138l82 770q8 76 84 76q70 0 70 -76l-82 -770q-14 -152 -118.5 -242t-258.5 -90q-162 0 -268 103q-19 18 -19 49z" />
<glyph horiz-adv-x="1183" d="M6 57l109 1039q6 63 80 63q72 0 71 -55v-8l-63 -596l782 637q23 18 49 18q31 0 53.5 -23.5t22.5 -52.5q-2 -35 -27 -53l-467 -375l400 -528q18 -18 18 -51v-9q-2 -33 -27.5 -49t-48.5 -16q-37 0 -65 35l-391 516l-320 -250l-24 -233q-6 -66 -80 -66q-72 0 -72 57z" />
<glyph horiz-adv-x="1021" d="M8 94q0 4 1 11.5t1 11.5l103 960q6 76 82 76q68 0 67 -63l-98 -940h657q68 0 68 -74q-6 -76 -82 -76h-707q-92 0 -92 94z" />
<glyph horiz-adv-x="1658" d="M6 61v11l4 24l301 924q41 154 148 154q98 0 129 -138l174 -760l342 760q59 133 162 133q104 0 110 -149l92 -938q0 -35 -24.5 -57.5t-57.5 -22.5q-68 0 -73 82l-80 893l-412 -889q-41 -88 -92 -88q-53 0 -76 88l-209 891l-282 -893q-23 -84 -90 -84q-66 0 -66 59z" />
<glyph horiz-adv-x="1204" d="M6 66l107 1015q10 90 84 90q55 0 98 -73l588 -828l88 822q10 78 82 77q68 0 67 -65l-106 -1014q-10 -90 -82 -90q-59 0 -96 61l-594 824l-86 -807q-10 -78 -80 -78t-70 66z" />
<glyph horiz-adv-x="1366" d="M55 504q0 270 200 461.5t464 191.5q236 0 385 -147.5t149 -376.5q0 -268 -197.5 -460.5t-461.5 -192.5q-250 0 -394.5 150.5t-144.5 373.5zM215 522q0 -170 108.5 -281.5t290.5 -111.5q203 0 339.5 145.5t136.5 337.5q0 168 -108 282t-280 114q-213 0 -350 -142.5 t-137 -343.5z" />
<glyph horiz-adv-x="1067" d="M6 63v13l105 991q8 82 92 82h393q188 0 294.5 -100.5t106.5 -241.5q0 -188 -143 -312t-326 -124h-340l-32 -295q-8 -76 -80 -76q-70 0 -70 63zM203 520h332q135 0 215.5 73t93.5 183q0 94 -75 158.5t-216 64.5h-299z" />
<glyph horiz-adv-x="1521" d="M55 504q0 270 200 461.5t464 191.5q236 0 385 -147.5t149 -376.5q0 -252 -182 -451q92 -117 92 -141v-8q-4 -29 -23.5 -50.5t-52.5 -21.5q-29 0 -47 19l-90 102q-158 -102 -356 -102q-250 0 -394.5 150.5t-144.5 373.5zM215 522q0 -170 108.5 -281.5t290.5 -111.5 q127 0 238 61l-78 82q-23 23 -22 50q0 37 27.5 67.5t64.5 30.5q31 0 51 -25l84 -96q111 141 111 313q0 168 -108 282t-280 114q-213 0 -350 -142.5t-137 -343.5z" />
<glyph horiz-adv-x="1071" d="M8 74v18l105 995q8 82 127 82h307q205 0 319.5 -79.5t114.5 -239.5q0 -139 -80 -234.5t-209 -144.5l185 -334q12 -16 12 -47q0 -4 -1 -12t-1 -12q-6 -68 -74 -68q-37 0 -65 41l-216 381h-339l-35 -328q-10 -92 -82 -92q-68 0 -68 74zM209 569h291q127 0 223 59.5 t108 172.5q0 219 -284 219h-291z" />
<glyph horiz-adv-x="1001" d="M31 145q0 39 21.5 71t58.5 32q29 0 57 -23q133 -92 272 -92q98 0 178 42t91 132q0 70 -58.5 112t-156.5 79q-76 29 -113 44t-98.5 45.5t-90 58.5t-53 71t-24.5 92q0 4 1 13t1 14q18 164 145 248.5t303 84.5q178 0 309 -73q31 -18 31 -60q-2 -43 -26.5 -65.5t-55.5 -22.5 q-25 0 -43 13q-88 53 -239 53q-104 0 -179 -38t-86 -122v-8q0 -14 5.5 -27.5t16.5 -26t22.5 -23.5t32 -22.5t37 -19.5t43 -20.5t44 -18.5t49 -19.5t47.5 -19.5q143 -57 224.5 -132t81.5 -195q-18 -174 -152.5 -259.5t-308.5 -85.5q-188 0 -365 121q-22 16 -22 47z" />
<glyph horiz-adv-x="1056" d="M111 1061v10q8 76 90 76h755q70 0 70 -76q-6 -74 -84 -74h-303l-96 -911q-10 -86 -82 -86q-70 0 -70 70l96 927h-301q-75 1 -75 64z" />
<glyph horiz-adv-x="1177" d="M53 459q0 61 58 604q8 88 94 88q72 0 71 -70q-55 -539 -55 -583q0 -354 303 -355q156 0 249 101.5t120 355.5l49 463q8 88 94 88q74 0 74 -88l-51 -479q-63 -606 -572 -607q-201 0 -317.5 115t-116.5 367z" />
<glyph horiz-adv-x="1189" d="M113 1073v10q10 74 86 74q59 0 73 -61l252 -842l424 842q29 59 78 59q31 0 55.5 -23.5t24.5 -52.5v-8q0 -14 -8 -24l-471 -920q-63 -127 -129 -127q-61 0 -95 109l-288 938q-2 8 -2 26z" />
<glyph horiz-adv-x="1705" d="M113 1085.5q0 6.5 2 10.5q2 35 27.5 55t58.5 20q66 0 71 -75l117 -891l381 889q33 78 117 77q82 0 98 -77l182 -887l299 885q18 84 93 84q31 0 51 -19.5t20 -52.5v-8l-4 -19l-340 -973q-16 -47 -55 -75.5t-84 -28.5q-43 0 -77 23.5t-40 70.5l-174 838l-344 -805 q-57 -131 -150 -131q-45 0 -76.5 33.5t-39.5 87.5l-131 960q-2 2 -2 8.5z" />
<glyph horiz-adv-x="1079" d="M4 47v10q6 35 33 70l364 504l-215 420q-12 23 -12 43v8q2 31 25.5 50t54.5 19q39 0 63 -36l193 -369l246 367q27 37 67 36q29 0 47.5 -19.5t18.5 -45.5v-8q-2 -25 -23 -47l-286 -400l260 -518q20 -35 20 -68v-8q-6 -57 -65 -57q-45 0 -72 45l-248 467l-334 -465 q-33 -47 -84 -47q-53 0 -53 49z" />
<glyph horiz-adv-x="1132" d="M115 1081v13q6 72 73 71q41 0 60 -43l295 -598l352 594q31 47 78 47q61 0 61 -55v-10q-2 -18 -16 -43l-424 -699l-29 -270q-8 -88 -84 -88q-70 0 -69 72v16l28 270l-317 682q-8 18 -8 41z" />
<glyph horiz-adv-x="1150" d="M8 68v18q2 41 31 80l782 833h-610q-70 0 -70 60v14q6 76 84 76h721q96 0 96 -59q-2 -43 -51 -107l-782 -833h682q72 0 72 -58v-14q-6 -78 -86 -78h-805q-64 0 -64 68z" />
<glyph horiz-adv-x="1357" d="M6 61v11q2 6 12 41l566 968q43 92 129 93q84 0 108 -93l377 -968q6 -12 6 -29q0 -4 -1 -8t-1 -6q-6 -70 -76 -70q-57 0 -69 49l-113 262h-635l-145 -233q-35 -78 -98 -78q-60 0 -60 61zM399 467h488l-199 506z" />
<glyph horiz-adv-x="1150" d="M8 74q0 16 2 26l99 949q12 98 94 98h375q150 0 249 -61.5t99 -186.5q0 -111 -67.5 -185.5t-172.5 -107.5q133 -4 210 -82t77 -182q0 -152 -130 -247t-284 -95h-440q-68 0 -90 16q-21 17 -21 58zM166 150h346q131 0 208 51t85 143q0 88 -84 130t-201 42h-315zM219 655h246 q281 0 299 203q0 139 -213 139h-295z" />
<glyph horiz-adv-x="976" d="M6 63v13l103 968q10 98 94 99h645q33 0 52.5 -20.5t19.5 -49.5v-8q-6 -72 -89 -72h-577l-96 -917q-8 -76 -84 -76q-68 0 -68 63z" />
<glyph horiz-adv-x="1392" d="M4 45v8q4 20 12 35l553 989q43 94 127 94q88 0 107 -94l362 -989q4 -20 4 -31v-8q-6 -49 -127 -49h-948q-90 0 -90 45zM242 150h712l-282 802z" />
<glyph horiz-adv-x="976" d="M6 57q0 20 2 35l103 963q8 92 92 92h622q68 0 68 -76q-6 -74 -82 -74h-557l-35 -319h459q68 0 67 -78q-6 -72 -81 -72h-459l-41 -378h573q80 0 80 -62q-6 -88 -94 -88h-639q-45 0 -61.5 12t-16.5 45z" />
<glyph horiz-adv-x="1150" d="M8 68v18q2 41 31 80l782 833h-610q-70 0 -70 60v14q6 76 84 76h721q96 0 96 -59q-2 -43 -51 -107l-782 -833h682q72 0 72 -58v-14q-6 -78 -86 -78h-805q-64 0 -64 68z" />
<glyph horiz-adv-x="1150" d="M6 63l107 1014q6 76 82 76q68 0 67 -63l-45 -428h641l45 415q8 76 82 76q70 0 70 -63l-107 -1016q-6 -74 -84 -74q-68 0 -67 63l47 447h-641l-47 -436q-6 -74 -80 -74q-70 0 -70 63z" />
<glyph horiz-adv-x="1386" d="M55 504q0 270 200 461.5t464 191.5q236 0 385 -147.5t149 -376.5q0 -268 -197.5 -460.5t-461.5 -192.5q-250 0 -394.5 150.5t-144.5 373.5zM215 522q0 -170 108.5 -281.5t290.5 -111.5q203 0 339.5 145.5t136.5 337.5q0 168 -108 282t-280 114q-213 0 -350 -142.5 t-137 -343.5zM293 565q8 88 84 88h567q68 0 68 -63q-6 -88 -84 -88h-568q-67 0 -67 63z" />
<glyph horiz-adv-x="360" d="M6 63l107 1012q6 76 82 76q68 0 67 -64l-106 -1011q-8 -76 -82 -76q-68 0 -68 63z" />
<glyph horiz-adv-x="1183" d="M6 57l109 1039q6 63 80 63q72 0 71 -55v-8l-63 -596l782 637q23 18 49 18q31 0 53.5 -23.5t22.5 -52.5q-2 -35 -27 -53l-467 -375l400 -528q18 -18 18 -51v-9q-2 -33 -27.5 -49t-48.5 -16q-37 0 -65 35l-391 516l-320 -250l-24 -233q-6 -66 -80 -66q-72 0 -72 57z" />
<glyph horiz-adv-x="1378" d="M6 61v11q2 6 12 41l566 968q43 92 129 93q84 0 108 -93l377 -968q6 -12 6 -29q0 -4 -1 -8t-1 -6q-6 -70 -76 -70q-57 0 -69 49l-369 924l-524 -895q-35 -78 -98 -78q-60 0 -60 61z" />
<glyph horiz-adv-x="1658" d="M6 61v11l4 24l301 924q41 154 148 154q98 0 129 -138l174 -760l342 760q59 133 162 133q104 0 110 -149l92 -938q0 -35 -24.5 -57.5t-57.5 -22.5q-68 0 -73 82l-80 893l-412 -889q-41 -88 -92 -88q-53 0 -76 88l-209 891l-282 -893q-23 -84 -90 -84q-66 0 -66 59z" />
<glyph horiz-adv-x="1204" d="M6 66l107 1015q10 90 84 90q55 0 98 -73l588 -828l88 822q10 78 82 77q68 0 67 -65l-106 -1014q-10 -90 -82 -90q-59 0 -96 61l-594 824l-86 -807q-10 -78 -80 -78t-70 66z" />
<glyph horiz-adv-x="1298" d="M2 70v10q6 76 94 76h946q78 0 78 -64v-14q-6 -74 -92 -74h-946q-80 0 -80 66zM135 1059v14q6 76 82 76h911q70 0 70 -64v-12q-10 -74 -84 -74h-911q-68 1 -68 60zM227 569q0 4 1 8.5t1 8.5q6 74 80 73h606q68 0 68 -63v-16q-6 -74 -84 -74h-606q-66 0 -66 63z" />
<glyph horiz-adv-x="1366" d="M55 504q0 270 200 461.5t464 191.5q236 0 385 -147.5t149 -376.5q0 -268 -197.5 -460.5t-461.5 -192.5q-250 0 -394.5 150.5t-144.5 373.5zM215 522q0 -170 108.5 -281.5t290.5 -111.5q203 0 339.5 145.5t136.5 337.5q0 168 -108 282t-280 114q-213 0 -350 -142.5 t-137 -343.5z" />
<glyph horiz-adv-x="1138" d="M6 63v13l105 985q10 78 82 78h788q29 0 49.5 -21.5t20.5 -50.5l-105 -991q-8 -76 -80 -76q-70 0 -69 63v13l96 909h-641l-96 -909q-8 -76 -84 -76q-66 0 -66 63z" />
<glyph horiz-adv-x="1067" d="M6 63v13l105 991q8 82 92 82h393q188 0 294.5 -100.5t106.5 -241.5q0 -188 -143 -312t-326 -124h-340l-32 -295q-8 -76 -80 -76q-70 0 -70 63zM203 520h332q135 0 215.5 73t93.5 183q0 94 -75 158.5t-216 64.5h-299z" />
<glyph horiz-adv-x="1132" d="M8 68v18q2 41 31 80l412 387q16 23 18 41q0 18 -14 47l-287 340q-29 49 -29 92v8q6 68 111 68h741q68 0 68 -62v-16q-6 -74 -82 -74h-633l309 -352q14 -23 15 -47v-8q-2 -16 -19 -41l-428 -399h692q68 0 68 -62v-16q-6 -72 -82 -72h-827q-64 0 -64 68z" />
<glyph horiz-adv-x="1056" d="M111 1061v10q8 76 90 76h755q70 0 70 -76q-6 -74 -84 -74h-303l-96 -911q-10 -86 -82 -86q-70 0 -70 70l96 927h-301q-75 1 -75 64z" />
<glyph horiz-adv-x="1132" d="M115 1081v13q6 72 73 71q41 0 60 -43l295 -598l352 594q31 47 78 47q61 0 61 -55v-10q-2 -18 -16 -43l-424 -699l-29 -270q-8 -88 -84 -88q-70 0 -69 72v16l28 270l-317 682q-8 18 -8 41z" />
<glyph horiz-adv-x="1419" d="M59 547q0 31 2 45q16 170 165 275.5t382 105.5l13 110q8 76 84 76q68 0 67 -61v-15q0 -4 -16 -110q219 0 345 -95.5t126 -250.5q0 -25 -2 -37q-18 -168 -166 -270.5t-379 -102.5l-16 -139q-10 -78 -80 -78t-70 66v12l16 139q-229 0 -350 88t-121 242zM205 569 q0 -98 90 -154.5t250 -56.5l49 473q-180 0 -278.5 -64.5t-108.5 -174.5q0 -4 -1 -12.5t-1 -10.5zM694 358q358 0 385 232q0 4 1 13t1 13q0 100 -84 157.5t-254 57.5z" />
<glyph horiz-adv-x="1079" d="M4 47q6 43 33 80l364 504l-215 420q-12 23 -12 43q2 35 25.5 56t54.5 21q39 0 63 -36l193 -369l246 367q27 37 67 36q29 0 47.5 -19.5t18.5 -45.5q-2 -33 -23 -55l-286 -400l268 -516q20 -35 20 -67q-6 -68 -73 -68q-45 0 -72 45l-248 467l-334 -465q-33 -47 -84 -47 q-53 0 -53 49z" />
<glyph horiz-adv-x="1392" d="M84 735q0 59 27 322q6 74 86 73q63 0 63 -73q-25 -236 -24 -293q0 -172 71.5 -264t239.5 -92l74 696q8 76 81 76q68 0 68 -60l-74 -712q209 0 294 114.5t112 362.5l18 172q6 76 84 76q70 0 70 -64l-21 -211q-27 -285 -168 -439.5t-403 -154.5l-20 -190q-6 -74 -82 -74 q-68 0 -68 63l20 201q-448 12 -448 471z" />
<glyph horiz-adv-x="1212" d="M16 61q8 88 78 89h811q63 0 64 -60q0 -39 -20.5 -64.5t-57.5 -25.5h-811q-64 0 -64 61zM51 668q0 211 171 350t374 139q201 0 333 -109.5t132 -289.5q0 -219 -172 -355.5t-387 -136.5q-201 0 -326 114t-125 288zM209 688q0 -123 89 -197.5t224 -74.5q154 0 265.5 90 t111.5 231q0 121 -91 196t-228 75q-150 0 -260.5 -91.5t-110.5 -228.5z" />
<glyph horiz-adv-x="1357" d="M6 61v11q2 6 12 41l566 968q43 92 129 93q84 0 108 -93l377 -968q6 -12 6 -29q0 -4 -1 -8t-1 -6q-6 -70 -76 -70q-57 0 -69 49l-113 262h-635l-145 -233q-35 -78 -98 -78q-60 0 -60 61zM399 467h488l-199 506z" />
<glyph horiz-adv-x="976" d="M6 57q0 20 2 35l103 963q8 92 92 92h622q68 0 68 -76q-6 -74 -82 -74h-557l-35 -319h459q68 0 67 -78q-6 -72 -81 -72h-459l-41 -378h573q80 0 80 -62q-6 -88 -94 -88h-639q-45 0 -61.5 12t-16.5 45z" />
<glyph horiz-adv-x="360" d="M6 63l107 1012q6 76 82 76q68 0 67 -64l-106 -1011q-8 -76 -82 -76q-68 0 -68 63z" />
<glyph horiz-adv-x="1150" d="M6 63l107 1014q6 76 82 76q68 0 67 -63l-45 -428h641l45 415q8 76 82 76q70 0 70 -63l-107 -1016q-6 -74 -84 -74q-68 0 -67 63l47 447h-641l-47 -436q-6 -74 -80 -74q-70 0 -70 63z" />
<glyph horiz-adv-x="1366" d="M55 504q0 270 200 461.5t464 191.5q236 0 385 -147.5t149 -376.5q0 -268 -197.5 -460.5t-461.5 -192.5q-250 0 -394.5 150.5t-144.5 373.5zM215 522q0 -170 108.5 -281.5t290.5 -111.5q203 0 339.5 145.5t136.5 337.5q0 168 -108 282t-280 114q-213 0 -350 -142.5 t-137 -343.5z" />
<glyph horiz-adv-x="1132" d="M115 1081v13q6 72 73 71q41 0 60 -43l295 -598l352 594q31 47 78 47q61 0 61 -55v-10q-2 -18 -16 -43l-424 -699l-29 -270q-8 -88 -84 -88q-70 0 -69 72v16l28 270l-317 682q-8 18 -8 41z" />
<glyph horiz-adv-x="1269" d="M98 61q8 88 78 89h811q63 0 64 -60q0 -39 -20.5 -64.5t-57.5 -25.5h-811q-64 0 -64 61zM133 668q0 211 171 350t374 139q201 0 333 -109.5t132 -289.5q0 -219 -172 -355.5t-387 -136.5q-201 0 -326 114t-125 288zM291 688q0 -123 89 -197.5t224 -74.5q154 0 265.5 90 t111.5 231q0 121 -91 196t-228 75q-150 0 -260.5 -91.5t-110.5 -228.5z" />
<glyph horiz-adv-x="360" d="M6 63l107 1012q6 76 82 76q68 0 67 -64l-106 -1011q-8 -76 -82 -76q-68 0 -68 63z" />
<glyph horiz-adv-x="1132" d="M115 1081v13q6 72 73 71q41 0 60 -43l295 -598l352 594q31 47 78 47q61 0 61 -55v-10q-2 -18 -16 -43l-424 -699l-29 -270q-8 -88 -84 -88q-70 0 -69 72v16l28 270l-317 682q-8 18 -8 41z" />
<glyph horiz-adv-x="1132" d="M8 68v18q2 41 31 80l412 387q16 23 18 41q0 18 -14 47l-287 340q-29 49 -29 92v8q6 68 111 68h741q68 0 68 -62v-16q-6 -74 -82 -74h-633l309 -352q14 -23 15 -47v-8q-2 -16 -19 -41l-428 -399h692q68 0 68 -62v-16q-6 -72 -82 -72h-827q-64 0 -64 68z" />
<glyph horiz-adv-x="360" d="M6 63l107 1012q6 76 82 76q68 0 67 -64l-106 -1011q-8 -76 -82 -76q-68 0 -68 63z" />
<glyph horiz-adv-x="1132" d="M115 1081v13q6 72 73 71q41 0 60 -43l295 -598l352 594q31 47 78 47q61 0 61 -55v-10q-2 -18 -16 -43l-424 -699l-29 -270q-8 -88 -84 -88q-70 0 -69 72v16l28 270l-317 682q-8 18 -8 41z" />
<glyph d="M176 614q0 115 20.5 240t67.5 254t114.5 231.5t170 167t223.5 64.5h8q115 0 201 -57.5t132 -153.5t67.5 -206t21.5 -232q0 -111 -20.5 -235t-67.5 -252t-114.5 -229.5t-169 -166t-222.5 -64.5q-119 0 -206 55.5t-134 149.5t-69.5 202.5t-22.5 231.5zM348 641 q0 -129 23.5 -237.5t89 -189.5t164.5 -81q86 0 156.5 57.5t115.5 145.5t76 194.5t44 201.5t13 171q0 131 -23.5 239.5t-86 187.5t-158.5 79q-109 0 -194 -84t-130 -210t-67.5 -249t-22.5 -225z" />
<glyph d="M172 70q6 68 82 67h362l125 1204l-206 -57q-20 -4 -27 -4q-29 0 -46.5 16.5t-17.5 42.5q4 74 84 95q313 86 322 86q49 0 61 -41l4 -35q0 -12 -4 -70l-131 -1237h350q72 0 72 -69q-6 -66 -86 -66h-876q-68 0 -68 68z" />
<glyph d="M201 66v8q2 33 39 76l637 757q119 143 118 285q0 98 -71.5 156.5t-169.5 58.5q-109 0 -195 -72.5t-98 -201.5q-4 -35 -28.5 -67t-63.5 -32q-37 0 -56.5 30t-19.5 69v10q20 188 165.5 305t319.5 117q158 0 272.5 -96.5t114.5 -249.5q0 -207 -188 -428l-539 -635h563 q70 0 70 -66v-10q-10 -80 -86 -80h-678q-106 0 -106 66z" />
<glyph d="M211 305q4 39 26.5 60.5t51.5 21.5q53 0 71 -53q63 -195 248 -195q139 0 234.5 95.5t95.5 228.5q0 100 -53.5 174t-157.5 92q-25 4 -119 4q-86 2 -86 68v8q10 74 101 74q96 0 116 4q100 20 156.5 115.5t56.5 199.5q0 100 -58 157.5t-165 57.5q-88 0 -157.5 -59.5 t-77.5 -145.5q-10 -102 -91 -102q-76 0 -75 88q14 147 138 260t290 113q170 0 267 -99.5t97 -252.5q0 -223 -207 -392q190 -127 191 -350q0 -213 -148.5 -356.5t-349.5 -143.5q-154 0 -274.5 94.5t-120.5 233.5z" />
<glyph d="M145 475v8q8 45 35 78l627 862q68 96 166 97q117 0 117 -148l-89 -829h99q68 0 67 -66q-6 -88 -75 -88h-107l-31 -293q-10 -96 -86 -96q-72 0 -71 80l30 307h-583q-47 0 -73 25.5t-26 62.5zM344 543h500l86 805z" />
<glyph d="M152 223q4 41 25.5 62.5t47.5 21.5q41 0 60 -35q43 -63 125 -103t165 -40q154 0 262.5 119t108.5 266q0 127 -77.5 216t-225.5 89q-57 0 -117.5 -17.5t-89.5 -17.5q-76 0 -76 64q0 25 164 586q25 82 125 82h438q31 0 49.5 -23t18.5 -55q-8 -88 -84 -88h-422l-110 -396 q70 16 157 17q203 0 309.5 -122t106.5 -300q0 -240 -168 -407t-395 -167q-164 0 -280.5 80t-116.5 168z" />
<glyph d="M195 446q0 526 624 1045q37 31 74 31q33 0 54.5 -18.5t21.5 -51.5q-2 -41 -27 -61q-141 -119 -272 -267.5t-193 -253.5q104 109 293 109q158 0 261.5 -117t103.5 -303q0 -229 -155 -406.5t-376 -177.5q-197 0 -303 135t-106 336zM352 446q0 -133 73 -226t204 -93 q154 18 251 136t97 267q0 125 -73 211t-214 86q-152 0 -245 -117t-93 -264z" />
<glyph d="M295 1421q8 96 102 97h725q37 0 61.5 -24t24.5 -62q-2 -33 -18 -64l-678 -1284q-47 -84 -106 -84q-63 0 -64 68q2 45 14 61l650 1223h-625q-86 -1 -86 69z" />
<glyph d="M193 385q0 145 84.5 268t216.5 183q-164 106 -164 305q0 176 137 298t307 122q156 0 254 -91.5t98 -238.5q0 -229 -235 -383q102 -53 161.5 -149.5t59.5 -213.5q0 -207 -153.5 -358.5t-350.5 -151.5q-188 0 -301.5 114t-113.5 296zM369 410q0 -119 69.5 -196t188.5 -77 q137 0 225 107.5t88 240.5q0 117 -70.5 195t-179.5 78q-137 0 -229 -108.5t-92 -239.5zM494 1141q0 -98 57 -164t156 -66q111 0 179 93.5t68 201.5q0 94 -58 148.5t-142 54.5q-111 0 -185.5 -81t-74.5 -187z" />
<glyph d="M223 993q0 236 154.5 406t386.5 170q199 0 310.5 -132t111.5 -343q0 -317 -189.5 -610.5t-466.5 -497.5q-31 -23 -65 -23q-29 0 -47.5 17.5t-18.5 42.5q4 51 47 86q152 121 287 272t180 248q-111 -90 -272 -90q-197 0 -307.5 133t-110.5 321zM387 997q0 -141 80 -223 t201 -82q166 0 265 120t99 282q0 133 -72.5 225t-218.5 92q-160 0 -257 -129t-97 -285z" />
<glyph horiz-adv-x="1257" d="M164 512q0 176 64.5 340t199.5 277.5t309 113.5h8q215 0 326 -153.5t111 -380.5q0 -180 -65.5 -345t-201 -277t-307.5 -112q-215 0 -329.5 155t-114.5 382zM328 537q0 -170 76.5 -287t220.5 -117q129 0 222 95.5t131 216t38 237.5q0 170 -75 284.5t-214 114.5 q-131 0 -226 -93t-134 -212.5t-39 -238.5z" />
<glyph d="M195 70q6 68 81 67h338l99 922l-207 -58q-20 -4 -27 -4q-29 0 -47 16.5t-18 43.5v8q8 66 86 86q313 86 321 86q49 0 62 -41q2 -6 2 -35q0 -41 -2 -69l-103 -955h332q72 0 72 -69q-6 -66 -86 -66h-836q-67 0 -67 68z" />
<glyph d="M201 66v8q2 33 39 76q514 406 616 507q96 96 105 181q2 20 2 47q0 98 -72 156.5t-170 58.5q-109 0 -195 -73t-98 -202q-4 -35 -28.5 -66.5t-63.5 -31.5q-37 0 -56.5 29.5t-19.5 68.5v11q20 188 165.5 304.5t319.5 116.5q158 0 273 -96t115 -250q0 -61 -29 -128.5 t-66 -124t-105.5 -126t-115.5 -111.5t-131 -106.5t-115.5 -86t-103.5 -72.5h534q70 0 70 -66v-10q-10 -80 -86 -80h-678q-106 0 -106 66z" />
<glyph d="M178 -8q4 39 26.5 60.5t51.5 21.5q53 0 72 -54q63 -195 247 -194q141 0 234.5 97t93.5 231q0 96 -53 169.5t-156 92.5q-25 4 -119 4q-86 2 -86 67v9q6 74 101 73q96 0 117 4q100 20 156.5 115.5t56.5 200.5q0 100 -58.5 157.5t-165.5 57.5q-88 0 -157.5 -59.5 t-77.5 -145.5q-10 -102 -90 -102q-78 0 -78 84q0 4 1 12t1 12q14 135 139 243.5t289 108.5q170 0 267 -99t97 -253q0 -221 -206 -391q190 -127 190 -350q0 -215 -145.5 -358.5t-345.5 -143.5q-145 0 -273.5 90t-128.5 221v19z" />
<glyph d="M119 205q4 55 35 90l624 862q68 96 168 96q51 0 84 -33.5t33 -91.5q0 -4 -1 -11t-1 -11l-86 -830h98q68 0 68 -63q0 -39 -19.5 -64.5t-56.5 -25.5h-107l-30 -293q-10 -96 -88 -96q-70 0 -70 80v16l31 291h-584q-47 0 -72.5 23.5t-25.5 60.5zM317 276h500l84 805z" />
<glyph d="M123 -53q2 35 24.5 54t49.5 19q37 0 59 -34q41 -63 123 -103.5t166 -40.5q154 0 262 119t108 266q0 127 -77.5 216t-225.5 89q-57 0 -117.5 -17t-88.5 -17q-76 0 -76 63v12q0 12 164 574q25 82 127 82h438q31 0 48 -22.5t17 -55.5v-10q-10 -78 -84 -78h-422l-108 -395 q68 16 158 16q201 0 308 -122t107 -296q0 -238 -165.5 -407.5t-397.5 -169.5q-164 0 -280.5 78.5t-116.5 166.5v13z" />
<glyph d="M195 446q0 526 624 1045q37 31 74 31q33 0 54.5 -18.5t21.5 -51.5v-12q-4 -29 -27 -49q-141 -119 -272 -267.5t-193 -253.5q104 109 293 109q158 0 261.5 -117t103.5 -303q0 -229 -155 -406.5t-376 -177.5q-197 0 -303 135t-106 336zM352 446q0 -133 73 -226t204 -93 q154 18 251 136t97 267q0 125 -73 211t-214 86q-152 0 -245 -117t-93 -264z" />
<glyph d="M264 1128q8 96 103 97h725q37 0 61.5 -23.5t24.5 -62.5q-2 -33 -19 -64l-678 -1284q-47 -84 -108.5 -84t-61.5 66v14q4 33 15 49l649 1223h-625q-86 -1 -86 69z" />
<glyph d="M193 385q0 145 84.5 268t216.5 183q-164 106 -164 305q0 176 137 298t307 122q156 0 254 -91.5t98 -238.5q0 -229 -235 -383q102 -53 161.5 -149.5t59.5 -213.5q0 -207 -153.5 -358.5t-350.5 -151.5q-188 0 -301.5 114t-113.5 296zM369 410q0 -119 69.5 -196t188.5 -77 q137 0 225 107.5t88 240.5q0 117 -70.5 195t-179.5 78q-137 0 -229 -108.5t-92 -239.5zM494 1141q0 -98 57 -164t156 -66q111 0 179 93.5t68 201.5q0 94 -58 148.5t-142 54.5q-111 0 -185.5 -81t-74.5 -187z" />
<glyph d="M188 674q0 233 157 402t384 169q199 0 311.5 -133t112.5 -346q0 -322 -183.5 -604.5t-473.5 -499.5q-31 -23 -66 -22q-29 0 -47 17t-18 42q4 47 47 86q154 123 289 273.5t178 246.5q-111 -90 -271 -90q-197 0 -308.5 134.5t-111.5 324.5zM352 674q0 -141 80 -223t201 -82 q166 0 265 119.5t99 281.5q0 133 -72.5 225t-217.5 92q-160 0 -257.5 -128.5t-97.5 -284.5z" />
</font>
</defs>
</svg>
